Eredmény: 1 - 5 (5) összesen

Téma: Lesbian Bridal Stories 01-05

Téma Leírása (Opcionális): XXX.DVDRip
  1. #1
    Status
    Offline
    lion46 logója
    Adminisztrátor
    Csatlakozott
    15-07-17
    Életkor
    52
    Összes hozzászólás
    2.669
    Thanks : 0
    Thanked 0 Times in 0 Posts
    Hírnév szint
    10

    Lesbian Bridal Stories 01-05

    Lesbian Bridal Stories 01 XXX.DVDRip




    Cast: Bree Olsen, Tiffany Brookes, Puma Swede, Sydni Ellis, Kayla Sinns , Randi, Magdalene St Michaels and Nicole Moore

    General
    Complete name : Lesbian Bridal Stories #1.avi
    Format : AVI
    Format/Info : Audio Video Interleave
    File size : 1.99 GiB
    Duration : 2h 57mn
    Overall bit rate mode : Variable
    Overall bit rate : 1 601 Kbps
    Writing application : VirtualDubMod 1.5.4.1 (build 2178/release)
    Writing library : VirtualDubMod build 2178/release
    Comment : Joined with EO VideoNew value: %d... /

    Video
    ID : 0
    Format : MPEG-4 Visual
    Format profile : Advanced Simple@L5
    Format settings, BVOP : 1
    Format settings, QPel : No
    Format settings, GMC : No warppoints
    Format settings, Matrix : Custom
    Codec ID : XVID
    Codec ID/Hint : XviD
    Duration : 2h 57mn
    Bit rate : 1 480 Kbps
    Width : 640 pixels
    Height : 368 pixels
    Display aspect ratio : 1.739
    Frame rate : 29.970 fps
    Color space : YUV
    Chroma subsampling : 4:2:0
    Bit depth : 8 bits
    Scan type : Progressive
    Compression mode : Lossy
    Bits/(Pixel*Frame) : 0.210
    Stream size : 1.84 GiB (92%)
    Writing library : XviD 1.2.0.dev47 (UTC 2006-11-01)

    Audio
    ID : 1
    Format : MPEG Audio
    Format version : Version 1
    Format profile : Layer 3
    Mode : Joint stereo
    Mode extension : MS Stereo
    Codec ID : 55
    Codec ID/Hint : MP3
    Duration : 2h 57mn
    Bit rate mode : Variable
    Bit rate : 102 Kbps
    Channel(s) : 2 channels
    Sampling rate : 48.0 KHz
    Compression mode : Lossy
    Stream size : 136 MiB (7%)
    Alignment : Aligned on interleaves
    Interleave, duration : 24 ms (0.72 video frame)
    Interleave, preload duratio : 157 ms
    Writing library : LAME3.97


    Kód:
    https://data.hu/get/11261830/Lesbian_Bridal_Stories_2007.001
    https://data.hu/get/11261831/Lesbian_Bridal_Stories_2007.002
    https://data.hu/get/11261829/Lesbian_Bridal_Stories_2007.003
    https://data.hu/get/11261832/Lesbian_Bridal_Stories_2007.004
    https://data.hu/get/11261833/Lesbian_Bridal_Stories_2007.crc

    Kód:
    https://data.hu/get/11261834/Lesbian_Bridal_Stories_2007.zip
    Kód:
    https://datoporn.co/p8mlylb7351d

  2. #2
    Status
    Offline
    lion46 logója
    Adminisztrátor
    Csatlakozott
    15-07-17
    Életkor
    52
    Összes hozzászólás
    2.669
    Thanks : 0
    Thanked 0 Times in 0 Posts
    Hírnév szint
    10

    Lesbian Bridal Stories 02

    Lesbian Bridal Stories 02 XXX.DVDRip-AVI




    Cast: Anita Dark, Victoria Givens, Daisy Lane, Elexis Monroe, Veronica Rayne, Jayma Reid,Heather Silk and Bobbi Starr

    General
    Complete name : Lesbian Bridal Stories #2.avi
    Format : AVI
    Format/Info : Audio Video Interleave
    File size : 1.36 GiB
    Duration : 2h 35mn
    Overall bit rate mode : Variable
    Overall bit rate : 1 259 Kbps
    Writing application : VirtualDubMod 1.5.10.2 + BXAudHdrFix (build 2547/release)
    Writing library : VirtualDubMod build 2547/release

    Video
    ID : 0
    Format : MPEG-4 Visual
    Format profile : Advanced Simple@L5
    Format settings, BVOP : 1
    Format settings, QPel : No
    Format settings, GMC : No warppoints
    Format settings, Matrix : Default (H.263)
    Muxing mode : Packed bitstream
    Codec ID : XVID
    Codec ID/Hint : XviD
    Duration : 2h 35mn
    Bit rate : 1 143 Kbps
    Width : 576 pixels
    Height : 320 pixels
    Display aspect ratio : 16:9
    Frame rate : 29.970 fps
    Color space : YUV
    Chroma subsampling : 4:2:0
    Bit depth : 8 bits
    Scan type : Progressive
    Compression mode : Lossy
    Bits/(Pixel*Frame) : 0.207
    Stream size : 1.24 GiB (91%)
    Writing library : XviD 1.2.0.dev47 (UTC 2006-11-01)

    Audio
    ID : 1
    Format : MPEG Audio
    Format version : Version 1
    Format profile : Layer 3
    Mode : Joint stereo
    Mode extension : MS Stereo
    Codec ID : 55
    Codec ID/Hint : MP3
    Duration : 2h 35mn
    Bit rate mode : Variable
    Bit rate : 102 Kbps
    Nominal bit rate : 128 Kbps
    Channel(s) : 2 channels
    Sampling rate : 48.0 KHz
    Compression mode : Lossy
    Stream size : 114 MiB (8%)
    Alignment : Aligned on interleaves
    Interleave, duration : 24 ms (0.72 video frame)
    Interleave, preload duratio : 524 ms
    Writing library : LAME3.97
    Encoding settings : -m j -V 4 -q 2 -lowpass 17 --abr 128


    Kód:
    https://data.hu/get/11261838/Lesbian_Bridal_Stories_2.001
    https://data.hu/get/11261835/Lesbian_Bridal_Stories_2.002
    https://data.hu/get/11261839/Lesbian_Bridal_Stories_2.003
    https://data.hu/get/11261836/Lesbian_Bridal_Stories_2.004
    https://data.hu/get/11261840/Lesbian_Bridal_Stories_2.005
    https://data.hu/get/11261837/Lesbian_Bridal_Stories_2.crc

    Kód:
    https://data.hu/get/11261841/Lesbian_Bridal_Stories_2.zip

    Kód:
    https://datoporn.co/27ogbzpcwhsq

  3. #3
    Status
    Offline
    lion46 logója
    Adminisztrátor
    Csatlakozott
    15-07-17
    Életkor
    52
    Összes hozzászólás
    2.669
    Thanks : 0
    Thanked 0 Times in 0 Posts
    Hírnév szint
    10

    Lesbian Bridal Stories 03

    Lesbian Bridal Stories 03 XXX.DVDRip




    Cast: KC Kelly, Faye Reagan, Dana DeArmond, Heather Starlet, Lena Nicole ,Marlie Moore, Dia Zerva, Evie Delatosso
    Általános
    Teljes név : Lesbian Bridal Stories #3.avi
    Formátum : AVI
    Formátum/adatok : Audio Video Interleave
    Formátum profil : OpenDML
    Formátum beállítások : rec
    Fájlméret : 1,36 GiB
    Időtartam : 2 óra
    Teljes adatsebesség : változó
    Teljes adatsebesség : 1 114 Kbps
    Kódoló szoftver : AVI-Mux GUI 1.17.8.3, Feb 16 201019:42:50

    Kép
    Sáv száma : 0
    Formátum : MPEG-4 Visual
    Formátum profil : Advanced Simple@L5
    Formátum beállítások, BVOP : 1
    Formátum beállítások, QPel : nem
    Formátum beállítások, GMC : 0 warppoint
    Formátum beállítások, mátrix : Default (H.263)
    Keverési mód : adatcsomag
    Kódek azonosító : XVID
    Kódek azonosító/Tipp : XviD
    Időtartam : 2 óra
    Adatsebesség : 1 002 Kbps
    Szélesség : 640 képpont
    Magasság : 368 képpont
    Képarány : 1,739
    Képkockasebesség : 29,970 fps
    ColorSpace : YUV
    ChromaSubsampling : 4:2:0
    BitDepth/String : 8 bit
    Sorváltás típusa : folytonos
    Bit/(képpont*képkocka) : 0.142
    Adatfolyam mérete : 1,22 GiB (90%)
    Kódoló könyvtár : XviD 1.2.0.dev47 (UTC 2006-11-01)

    Hang
    Sáv száma : 1
    Formátum : MPEG Audio
    Formátum változat : Version 1
    Formátum profil : Layer 3
    Format_Settings_Mode : Joint stereo
    Format_Settings_ModeExtension : MS Stereo
    Kódek azonosító : 55
    Kódek azonosító/Tipp : MP3
    Időtartam : 2 óra
    Adatsebesség mód : változó
    Adatsebesség : 103 Kbps
    Névleges adatsebesség : 128 Kbps
    Csatornák száma : 2 csatorna
    Mintavételezési gyakoriság : 48,0 KHz
    Adatfolyam mérete : 129 MiB (9%)
    Igazítás : igazított
    Átfedés hossza : 24 emp (0,72 képkocka)
    Átfedés előolvasási hossz : 196 emp
    Kódoló könyvtár : LAME3.97
    Kódoló könyvtár beállításai : -m j -V 4 -q 2 -lowpass 17 --abr 128


    Kód:
    https://data.hu/get/11261852/Lesbian_Bridal_Stories_3.001
    https://data.hu/get/11261848/Lesbian_Bridal_Stories_3.002
    https://data.hu/get/11261854/Lesbian_Bridal_Stories_3.003
    https://data.hu/get/11261849/Lesbian_Bridal_Stories_3.004
    https://data.hu/get/11261851/Lesbian_Bridal_Stories_3.005
    https://data.hu/get/11261847/Lesbian_Bridal_Stories_3.006
    https://data.hu/get/11261850/Lesbian_Bridal_Stories_3.007
    https://data.hu/get/11261853/Lesbian_Bridal_Stories_3.crc

    Kód:
    https://data.hu/get/11261857/Lesbian_Bridal_Stories_3.zip
    Kód:
    https://datoporn.co/iotu4bqrbkek

  4. #4
    Status
    Offline
    lion46 logója
    Adminisztrátor
    Csatlakozott
    15-07-17
    Életkor
    52
    Összes hozzászólás
    2.669
    Thanks : 0
    Thanked 0 Times in 0 Posts
    Hírnév szint
    10
    Lesbian Bridal Stories 4 (2009) XXX.DVDRip



    Actors: Bobbi Starr, Dana DeArmond, Faye Reagan., Georgia Jones, India Summer, Nikki Rhodes, Prinzzess, Renee Perez, Zoe Britton

    General
    Complete name : Lesbian Bridal Stories 4.mp4
    Format : MPEG-4
    Format profile : Base Media
    Codec ID : isom (isom/iso2/avc1/mp41)
    File size : 704 MiB
    Duration : 2 h 18 min
    Overall bit rate : 713 kb/s
    Movie name : Lesbian Bridal Stories 4
    Writing application : Lavf57.83.100

    Video
    ID : 1
    Format : AVC
    Format/Info : Advanced Video Codec
    Format profile : High@L3.1
    Format settings : CABAC / 4 Ref Frames
    Format settings, CABAC : Yes
    Format settings, ReFrames : 4 frames
    Codec ID : avc1
    Codec ID/Info : Advanced Video Coding
    Duration : 2 h 18 min
    Bit rate : 640 kb/s
    Width : 640 pixels
    Height : 426 pixels
    Display aspect ratio : 3:2
    Frame rate mode : Variable
    Frame rate : 29.970 (29970/1000) FPS
    Minimum frame rate : 15.152 FPS
    Maximum frame rate : 31.250 FPS
    Color space : YUV
    Chroma subsampling : 4:2:0
    Bit depth : 8 bits
    Scan type : Progressive
    Bits/(Pixel*Frame) : 0.078
    Stream size : 633 MiB (90%)
    Writing library : x264
    Color range : Limited
    Color primaries : BT.601 NTSC
    Transfer characteristics : BT.709
    Matrix coefficients : BT.601

    Audio
    ID : 2
    Format : AAC
    Format/Info : Advanced Audio Codec
    Format profile : LC
    Codec ID : mp4a-40-2
    Duration : 2 h 18 min
    Bit rate mode : Constant
    Bit rate : 61.7 kb/s
    Channel(s) : 2 channels
    Channel positions : Front: L R
    Sampling rate : 44.1 kHz
    Frame rate : 43.066 FPS (1024 SPF)
    Compression mode : Lossy
    Stream size : 60.9 MiB (9%)
    Language : English
    Default : Yes
    Alternate group : 1


    Kód:
    https://data.hu/get/11261862/Lesbian_Bridal_Stories_4.001
    https://data.hu/get/11261866/Lesbian_Bridal_Stories_4.002
    https://data.hu/get/11261863/Lesbian_Bridal_Stories_4.003
    https://data.hu/get/11261864/Lesbian_Bridal_Stories_4.004
    https://data.hu/get/11261865/Lesbian_Bridal_Stories_4.crc


    Kód:
    https://data.hu/get/11261887/Lesbian_Bridal_Stories_4.zip

    Kód:
    https://datoporn.co/yiq1oiywxk74

  5. #5
    Status
    Offline
    lion46 logója
    Adminisztrátor
    Csatlakozott
    15-07-17
    Életkor
    52
    Összes hozzászólás
    2.669
    Thanks : 0
    Thanked 0 Times in 0 Posts
    Hírnév szint
    10
    Lesbian Bridal Stories 5 (2011) XXX.DVDRip



    Actors: Amber Chase, Bree Daniels, Jelena Jensen, Jessie Rogers, Lily Carter, Malena Morgan, Shyla Jennings, Syren Demar

    General
    Complete name : Lesbian Bridal Stories 5.mp4
    Format : MPEG-4
    Format profile : Base Media
    Codec ID : isom (isom/iso2/avc1/mp41)
    File size : 810 MiB
    Duration : 3 h 14 min
    Overall bit rate : 583 kb/s
    Writing application : Lavf57.83.100

    Video
    ID : 1
    Format : AVC
    Format/Info : Advanced Video Codec
    Format profile : High@L3
    Format settings : CABAC / 3 Ref Frames
    Format settings, CABAC : Yes
    Format settings, ReFrames : 3 frames
    Codec ID : avc1
    Codec ID/Info : Advanced Video Coding
    Duration : 3 h 14 min
    Source duration : 49 s 1 ms
    Source_Duration_LastFrame : 1 ms
    Bit rate : 512 kb/s
    Width : 576 pixels
    Height : 320 pixels
    Display aspect ratio : 16:9
    Frame rate mode : Constant
    Frame rate : 29.970 (29970/1000) FPS
    Color space : YUV
    Chroma subsampling : 4:2:0
    Bit depth : 8 bits
    Scan type : Progressive
    Bits/(Pixel*Frame) : 0.093
    Stream size : 711 MiB (88%)
    Source stream size : 711 MiB (88%)
    Writing library : x264
    mdhd_Duration : 11645413

    Audio
    ID : 2
    Format : AAC
    Format/Info : Advanced Audio Codec
    Format profile : LC
    Codec ID : mp4a-40-2
    Duration : 3 h 14 min
    Duration_LastFrame : -3 ms
    Bit rate mode : Constant
    Bit rate : 64.4 kb/s
    Channel(s) : 2 channels
    Channel positions : Front: L R
    Sampling rate : 48.0 kHz
    Frame rate : 46.875 FPS (1024 SPF)
    Compression mode : Lossy
    Stream size : 89.4 MiB (11%)
    Default : Yes
    Alternate group : 1


    Kód:
    https://data.hu/get/11261897/Lesbian_Bridal_Stories_5.001
    https://data.hu/get/11261894/Lesbian_Bridal_Stories_5.002
    https://data.hu/get/11261898/Lesbian_Bridal_Stories_5.003
    https://data.hu/get/11261892/Lesbian_Bridal_Stories_5.004
    https://data.hu/get/11261893/Lesbian_Bridal_Stories_5.005
    https://data.hu/get/11261895/Lesbian_Bridal_Stories_5.crc


    Kód:
    https://data.hu/get/11261896/Lesbian_Bridal_Stories_5.zip


    Kód:
    https://datoporn.co/r331smffdnta

Hasonló témák

  1. XXX Filmek Moms Teach Sex 05
    lion46 a fórumba XXX. Nubiles
    Válaszok: 0
    Utolsó hozzászólás: 2018-03-11, 07:51
  2. Love Stories of Lesbian Cheaters
    lion46 a fórumba XXX Lesbian Filmek
    Válaszok: 0
    Utolsó hozzászólás: 2016-04-10, 06:47
  3. Lesbian Babysitters 01-12
    lion46 a fórumba XXX.Sweetheart lesbian videók
    Válaszok: 11
    Utolsó hozzászólás: 2015-07-07, 13:38

Hozzászólás szabályai

  • Új témákat hozhat létre
  • Válaszokat küldhet
  • Fájlokat csatolhat
  • A hozzászólásaidat módosíthatod
  •  
  • BB code is bekapcsolva
  • Pofik bekapcsolva
  • Az [IMG] kód bekapcsolva
  • [VIDEO] code is bekapcsolva
  • A HTML kód bekapcsolva