Eredmény: 1 - 2 (2) összesen

Téma: Teresa - The Woman Who Loves Men 1-2(1985-1988)

Téma Leírása (Opcionális): XXX.DVDRip
  1. #1
    Status
    Offline
    lion46 logója
    Adminisztrátor
    Csatlakozott
    15-07-17
    Életkor
    52
    Összes hozzászólás
    2.665
    Thanks : 0
    Thanked 0 Times in 0 Posts
    Hírnév szint
    10

    Teresa - The Woman Who Loves Men 1-2(1985-1988)

    Teresa - The Woman Who Loves Men 1(1985) XXX.DVDRip




    Director: Michel Barny
    Actor: Anna Fischer, Britta Stine, Christine Davis, Emmanuelle Menuire, Gerlinde Bodeker, Gisele Surel, Karine Hornel, Maria Benzlauer, Martine Aslo, Michele Menuire, Monique Talard, Sabina Kiesslich, Simone Graf, Sylvia Henri, Teresa Orlowski, Bert Petersen, Claude Stien, Daniel Anders, Francois Bollin

    General
    Complete name : The_Woman_Who_Loves_Men_1_1985_Teresa_Orlowski.avi
    Format : AVI
    Format/Info : Audio Video Interleave
    File size : 707 MiB
    Duration : 1 h 38 min
    Overall bit rate : 999 kb/s
    Writing library : VirtualDub-MPEG2 build 18294/release

    Video
    ID : 0
    Format : MPEG-4 Visual
    Format profile : Simple@L3
    Format settings, BVOP : 2
    Format settings, QPel : No
    Format settings, GMC : No warppoints
    Format settings, Matrix : Default (H.263)
    Muxing mode : Packed bitstream
    Codec ID : XVID
    Codec ID/Hint : XviD
    Duration : 1 h 38 min
    Bit rate : 862 kb/s
    Width : 352 pixels
    Height : 288 pixels
    Display aspect ratio : 1.222
    Frame rate : 25.000 FPS
    Standard : PAL
    Color space : YUV
    Chroma subsampling : 4:2:0
    Bit depth : 8 bits
    Scan type : Progressive
    Compression mode : Lossy
    Bits/(Pixel*Frame) : 0.340
    Stream size : 609 MiB (86%)
    Writing library : XviD 1.0.2 (UTC 2004-08-29)

    Audio
    ID : 1
    Format : MPEG Audio
    Format version : Version 1
    Format profile : Layer 3
    Mode : Joint stereo
    Mode extension : MS Stereo
    Codec ID : 55
    Codec ID/Hint : MP3
    Duration : 1 h 38 min
    Bit rate mode : Constant
    Bit rate : 128 kb/s
    Channel(s) : 2 channels
    Sampling rate : 44.1 kHz
    Compression mode : Lossy
    Stream size : 90.3 MiB (13%)
    Alignment : Split accross interleaves
    Interleave, duration : 40 ms (1.00 video frame)
    Interleave, preload duratio : 501 ms




    Kód:
    https://data.hu/get/10743037/The_Women_Who_Loves_Men_1.001
    https://data.hu/get/10743035/The_Women_Who_Loves_Men_1.002
    https://data.hu/get/10743034/The_Women_Who_Loves_Men_1.003
    https://data.hu/get/10743039/The_Women_Who_Loves_Men_1.004
    https://data.hu/get/10743036/The_Women_Who_Loves_Men_1.005
    https://data.hu/get/10743038/The_Women_Who_Loves_Men_1.crc

    Kód:
    https://data.hu/get/10743041/The_Women_Who_Loves_Men_1.zip



  2. #2
    Status
    Offline
    lion46 logója
    Adminisztrátor
    Csatlakozott
    15-07-17
    Életkor
    52
    Összes hozzászólás
    2.665
    Thanks : 0
    Thanked 0 Times in 0 Posts
    Hírnév szint
    10

    Teresa - The Woman Who Loves Men 2 (1988)

    Teresa - The Woman Who Loves Men 2 (1988) XXX.DVDRip




    General
    Complete name : The_Woman_Who_Loves_Men_2_1985_Teresa_Orlowski.avi
    Format : AVI
    Format/Info : Audio Video Interleave
    File size : 654 MiB
    Duration : 1 h 44 min
    Overall bit rate : 872 kb/s
    Writing library : VirtualDub build 13130/release

    Video
    ID : 0
    Format : MPEG-4 Visual
    Format settings, BVOP : Yes
    Format settings, QPel : No
    Format settings, GMC : No warppoints
    Format settings, Matrix : Default (H.263)
    Codec ID : DIVX
    Codec ID/Info : Project Mayo
    Codec ID/Hint : DivX 4
    Duration : 1 h 44 min
    Bit rate : 766 kb/s
    Width : 352 pixels
    Height : 288 pixels
    Display aspect ratio : 1.222
    Frame rate : 25.000 FPS
    Standard : PAL
    Color space : YUV
    Chroma subsampling : 4:2:0
    Bit depth : 8 bits
    Scan type : Progressive
    Compression mode : Lossy
    Bits/(Pixel*Frame) : 0.302
    Stream size : 574 MiB (88%)

    Audio
    ID : 1
    Format : MPEG Audio
    Format version : Version 1
    Format profile : Layer 3
    Mode : Joint stereo
    Mode extension : Intensity Stereo + MS Stereo
    Codec ID : 55
    Codec ID/Hint : MP3
    Duration : 1 h 44 min
    Bit rate mode : Constant
    Bit rate : 96.0 kb/s
    Channel(s) : 2 channels
    Sampling rate : 44.1 kHz
    Compression mode : Lossy
    Stream size : 71.9 MiB (11%)
    Alignment : Split accross interleaves
    Interleave, duration : 40 ms (1.00 video frame)
    Interleave, preload duratio : 457 ms







    Kód:
    https://data.hu/get/10743168/The_Woman_Who_Loves_Men_2.001
    https://data.hu/get/10743171/The_Woman_Who_Loves_Men_2.002
    https://data.hu/get/10743173/The_Woman_Who_Loves_Men_2.003
    https://data.hu/get/10743172/The_Woman_Who_Loves_Men_2.004
    https://data.hu/get/10743169/The_Woman_Who_Loves_Men_2.005
    https://data.hu/get/10743170/The_Woman_Who_Loves_Men_2.crc


    Kód:
    https://data.hu/get/10743167/The_Woman_Who_Loves_Men_2.zip


Hasonló témák

  1. X-Men - Az eljövendő múlt napjai (X-Men: Days of Future Past) 2014 BDRip.XviD.Hu
    lion46 a fórumba Szinkronos filmek Letöltése Dvd,HD,Bluray rippek
    Válaszok: 0
    Utolsó hozzászólás: 2016-03-29, 12:53
  2. XXX Filmek Foxy Lady 01-12 (1985-1988)
    lion46 a fórumba Teresa Orlowsky filmjei.
    Válaszok: 11
    Utolsó hozzászólás: 2015-10-19, 20:35
  3. MegaSex Teresa Orlowski
    lion46 a fórumba Teresa Orlowsky filmjei.
    Válaszok: 0
    Utolsó hozzászólás: 2015-07-26, 08:06
  4. X-Men - Az elsők (X-Men: First Class) DVDRip
    lion46 a fórumba Szinkronos filmek Letöltése Dvd,HD,Bluray rippek
    Válaszok: 4
    Utolsó hozzászólás: 2015-07-16, 10:45

Hozzászólás szabályai

  • Új témákat hozhat létre
  • Válaszokat küldhet
  • Fájlokat csatolhat
  • A hozzászólásaidat módosíthatod
  •  
  • BB code is bekapcsolva
  • Pofik bekapcsolva
  • Az [IMG] kód bekapcsolva
  • [VIDEO] code is bekapcsolva
  • A HTML kód bekapcsolva