Lesbian Schoolgirls – Airerose Entertainment (2017) XXX.DVDRip




Chloe Couture, Jaye Summers, Lena Paul, Modèles : Gina Valentina

General
Complete name : Lesbian Schoolgirls – Airerose Entertainment (2017) (1).mp4
Format : MPEG-4
Format profile : Base Media
Codec ID : isom (isom/iso2/avc1/mp41)
File size : 917 MiB
Duration : 1 h 27 min
Overall bit rate : 1 471 kb/s
Writing application : Lavf57.25.100

Video
ID : 1
Format : AVC
Format/Info : Advanced Video Codec
Format profile : High@L3.1
Format settings, CABAC : Yes
Format settings, ReFrames : 3 frames
Codec ID : avc1
Codec ID/Info : Advanced Video Coding
Duration : 1 h 27 min
Bit rate : 1 280 kb/s
Width : 1 280 pixels
Height : 720 pixels
Display aspect ratio : 16:9
Frame rate mode : Constant
Frame rate : 25.000 FPS
Color space : YUV
Chroma subsampling : 4:2:0
Bit depth : 8 bits
Scan type : Progressive
Bits/(Pixel*Frame) : 0.056
Stream size : 794 MiB (87%)
Writing library : x264

Audio
ID : 2
Format : AAC
Format/Info : Advanced Audio Codec
Format profile : LC
Codec ID : 40
Duration : 1 h 27 min
Bit rate mode : Constant
Bit rate : 192 kb/s
Channel(s) : 2 channels
Channel positions : Front: L R
Sampling rate : 44.1 kHz
Frame rate : 43.066 FPS (1024 spf)
Compression mode : Lossy
Stream size : 120 MiB (13%)
Default : Yes
Alternate group : 1



Kód:
https://data.hu/get/10573644/Lesbian_Schoolgirls__Airerose_Entertainment_2017_1.001
https://data.hu/get/10573642/Lesbian_Schoolgirls__Airerose_Entertainment_2017_1.002
https://data.hu/get/10573643/Lesbian_Schoolgirls__Airerose_Entertainment_2017_1.003
https://data.hu/get/10573640/Lesbian_Schoolgirls__Airerose_Entertainment_2017_1.004
https://data.hu/get/10573641/Lesbian_Schoolgirls__Airerose_Entertainment_2017_1.005
https://data.hu/get/10573639/Lesbian_Schoolgirls__Airerose_Entertainment_2017_1.crc

Kód:
https://data.hu/get/10573645/Lesbian_Schoolgirls__Airerose_Entertainment_2017_1.zip

Kód:
https://openload.co/f/3pvJkv-pU9o/Lesbian_Schoolgirls_%E2%80%93_Airerose_Entertainment_%282017%29_%281%29.mp4
Kód:
https://streamango.com/f/csmsatqmdbskrorb/Lesbian_Schoolgirls_Airerose_Entertainment_2017_1_mp4
Kód:
https://www.raptu.com/?v=FGH5U7C3VB
Kód:
https://www.rapidvideo.com/v/FGH60985PU