Babewatch XXX.DVDRip



Director Buck Adams
Asia Carrera, Kylie Ireland, Rebecca Wild, Brittany O'Connell, Holly Body, Bianca Trump

General
Complete name : Babewatch.mp4
Format : MPEG-4
Format profile : Base Media / Version 2
Codec ID : mp42 (isom/iso2/avc1/mp41)
File size : 505 MiB
Duration : 1 h 31 min
Overall bit rate mode : Variable
Overall bit rate : 772 kb/s
Encoded date : UTC 2017-02-16 06:16:27
Tagged date : UTC 2017-02-16 06:16:27
Writing application : HandBrake 0.10.5 2016021100

Video
ID : 1
Format : AVC
Format/Info : Advanced Video Codec
Format profile : High@L3.1
Format settings, CABAC : Yes
Format settings, RefFrames : 4 frames
Codec ID : avc1
Codec ID/Info : Advanced Video Coding
Duration : 1 h 31 min
Bit rate : 640 kb/s
Width : 640 pixels
Height : 480 pixels
Display aspect ratio : 4:3
Frame rate mode : Constant
Frame rate : 30.000 FPS
Color space : YUV
Chroma subsampling : 4:2:0
Bit depth : 8 bits
Scan type : Progressive
Bits/(Pixel*Frame) : 0.069
Stream size : 417 MiB (83%)
Writing library : x264
Encoded date : UTC 2017-02-16 06:16:27
Tagged date : UTC 2017-02-16 06:16:27
Color range : Limited
Color primaries : BT.601 NTSC
Transfer characteristics : BT.709
Matrix coefficients : BT.601

Audio
ID : 2
Format : AAC
Format/Info : Advanced Audio Codec
Format profile : LC
Codec ID : 40
Duration : 1 h 31 min
Bit rate mode : Variable
Bit rate : 128 kb/s
Channel(s) : 2 channels
Channel positions : Front: L R
Sampling rate : 48.0 kHz
Frame rate : 46.875 FPS (1024 SPF)
Compression mode : Lossy
Stream size : 83.8 MiB (17%)
Title : Stereo / Stereo
Language : English
Default : Yes
Alternate group : 1
Encoded date : UTC 2017-02-16 06:16:27
Tagged date : UTC 2017-02-16 06:16:27


Kód:
 http://www.xdisk.cz/cs/download.php?id=ABA3E3C21


Kód:
http://www.owndrives.com/x8gk0bihuxce/Babewatch.zip.html


Kód:
https://data.hu/get/10752852/Babewatch.001
https://data.hu/get/10752851/Babewatch.002
https://data.hu/get/10752850/Babewatch.003
https://data.hu/get/10752853/Babewatch.crc


Kód:
https://data.hu/get/10752855/Babewatch.zip