Ó, anyám! (Snatched) 2017.BDRip.x264.HuN mkv
színes, szinkronizált amerikai akció vígjáték, 90 perc



Stáb:
rendező: Jonathan Levine
forgatókönyvíró: Katie Dippold
producer: Peter Chernin, Paul Feig, Jessie Henderson, Jenno Topping
ügyvezető producer: Kim Caramele, Tonia Davis, Katie Dippold, Donald J. Lee Jr., Amy Schumer
operatőr: Florian Ballhaus
zene: Chris Bacon, Theodore Shapiro
vágó: Zene Baker, Melissa Bretherton

Szereplők:
Ike Barinholtz, Goldie Hawn, Amy Schumer, Christopher Meloni, Randall Park, Óscar Jaenada, Wanda Sykes, Tom Bateman, Colin Quinn, Kevin Kane

Emilyt (Amy Schumer) kirúgja a pasija, ő meg azt hiszi, hogy összedőlt a világ. Pedig a világ csak ezután dől össze: ugyanis a pár éppen egzotikus vakációra indult volna, és a magára maradt csaj jobb híján rábeszéli szuperóvatos anyukáját (Goldie Hawn), hogy ő utazzon el vele Dél-Amerikába. Ennyire különböző két nő még nem volt egy családban. Nem bírják elviselni egymást, és ezt meg sem próbálják letagadni. A botrányos utazás azonban csak a kezdet: mert még el is rabolják őket. Ha ki akarnak jutni a dzsungelből, anya és lánya kénytelen összefogni... de ahhoz hihetetlen és elképesztően dilis kalandokat kell kiállniuk.
Bemutató dátuma: 2017. május 11. (Forgalmazó: InterCom)

General
Unique ID : 213009811542158938415794834097126685831 (0xA040328C10D003E9857DF203CDF6BC87)
Complete name : O.anyam.2017.BDRip.x264.HuN.mkv
Format : Matroska
Format version : Version 4 / Version 2
File size : 796 MiB
Duration : 1 h 30 min
Overall bit rate : 1 230 kb/s
Movie name : BaKeR-Rls
Encoded date : UTC 2017-09-02 11:30:32
Writing application : mkvmerge v6.5.0 ('Isn't she lovely') built on Oct 20 2013 12:50:05
Writing library : libebml v1.3.0 + libmatroska v1.4.1

Video
ID : 1
Format : AVC
Format/Info : Advanced Video Codec
Format profile : High@L4.1
Format settings : CABAC / 16 Ref Frames
Format settings, CABAC : Yes
Format settings, RefFrames : 16 frames
Codec ID : V_MPEG4/ISO/AVC
Duration : 1 h 30 min
Bit rate : 1 013 kb/s
Width : 720 pixels
Height : 300 pixels
Display aspect ratio : 2.40:1
Frame rate mode : Constant
Frame rate : 23.976 (24000/1001) FPS
Color space : YUV
Chroma subsampling : 4:2:0
Bit depth : 8 bits
Scan type : Progressive
Bits/(Pixel*Frame) : 0.196
Stream size : 656 MiB (82%)
Writing library : x264
Language : English
Default : Yes
Forced : No
Color range : Limited
Matrix coefficients : BT.709

Audio
ID : 2
Format : AC-3
Format/Info : Audio Coding 3
Format settings, Endianness : Big
Codec ID : A_AC3
Duration : 1 h 30 min
Bit rate mode : Constant
Bit rate : 192 kb/s
Channel(s) : 2 channels
Channel positions : Front: L R
Sampling rate : 48.0 kHz
Frame rate : 31.250 FPS (1536 SPF)
Bit depth : 16 bits
Compression mode : Lossy
Stream size : 124 MiB (16%)
Language : Hungarian
Service kind : Complete Main
Default : Yes
Forced : No

Text
ID : 3
Format : UTF-8
Codec ID : S_TEXT/UTF8
Codec ID/Info : UTF-8 Plain Text
Title : Full
Language : Hungarian
Default : Yes
Forced : No


Kód:
http://www.xdisk.cz/cs/download.php?id=6A9922841


Kód:
 https://data.hu/get/10797649/O.anyam.2017.BDRip.x264.HuN.001
https://data.hu/get/10797648/O.anyam.2017.BDRip.x264.HuN.002
https://data.hu/get/10797647/O.anyam.2017.BDRip.x264.HuN.003
https://data.hu/get/10797650/O.anyam.2017.BDRip.x264.HuN.004
https://data.hu/get/10797644/O.anyam.2017.BDRip.x264.HuN.crc


Kód:
https://data.hu/get/10797645/O.anyam.2017.BDRip.x264.HuN.mkv.zip