Moms Bang Teens 23 XXX.DVDRip



Actor: Savana Styles, Alyssa Cole, Kirsten Lee, Teagan James, Hailey Little, Jamie Valentine, Sara St Clair

General
Complete name : Moms Bang Teens 23.MP4
Format : MPEG-4
Format profile : Base Media
Codec ID : isom (isom/iso2/avc1/mp41)
File size : 929 MiB
Duration : 3 h 2 min
Overall bit rate : 712 kb/s
Writing application : Lavf57.56.101

Video
ID : 1
Format : AVC
Format/Info : Advanced Video Codec
Format profile : High@L3.1
Format settings : CABAC / 5 Ref Frames
Format settings, CABAC : Yes
Format settings, ReFrames : 5 frames
Codec ID : avc1
Codec ID/Info : Advanced Video Coding
Duration : 3 h 2 min
Bit rate : 576 kb/s
Width : 640 pixels
Height : 480 pixels
Display aspect ratio : 16:9
Frame rate mode : Constant
Frame rate : 29.970 (29970/1000) FPS
Color space : YUV
Chroma subsampling : 4:2:0
Bit depth : 8 bits
Scan type : Progressive
Bits/(Pixel*Frame) : 0.063
Stream size : 753 MiB (81%)
Writing library : x264 core

Audio
ID : 2
Format : AAC
Format/Info : Advanced Audio Codec
Format profile : LC
Codec ID : mp4a-40-2
Duration : 3 h 2 min
Duration_LastFrame : 1 ms
Bit rate mode : Constant
Bit rate : 128 kb/s
Channel(s) : 2 channels
Channel positions : Front: L R
Sampling rate : 44.1 kHz
Frame rate : 43.066 FPS (1024 SPF)
Compression mode : Lossy
Stream size : 167 MiB (18%)
Default : Yes
Alternate group : 1


Kód:
http://www.xdisk.cz/cs/download.php?id=9685EE9C1


Kód:
https://mega.nz/#!GR8hSaBD!Ee-OYM8gkJluat4ylAUFXRqyLfF8593pvEzv6xmy34w


Kód:
https://data.hu/get/10882572/Moms_Bang_Teens_23.zip


Kód:
https://datoporn.co/hszyv7z4xky4