Moms Bang Teens 24 XXX.DVDRip



Alexis Fawx, Carter Cruise, Cory Chase, Sierra Nicole, Khloe Capri, Shane Blair, Molly Mae

General
Complete name : Moms Bang Teens 24.mp4
Format : MPEG-4
Format profile : Base Media
Codec ID : isom (isom/iso2/avc1/mp41)
File size : 1.12 GiB
Duration : 3 h 26 min
Overall bit rate : 777 kb/s
Writing application : Lavf57.83.100

Video
ID : 1
Format : AVC
Format/Info : Advanced Video Codec
Format profile : High@L3.1
Format settings : CABAC / 5 Ref Frames
Format settings, CABAC : Yes
Format settings, ReFrames : 5 frames
Codec ID : avc1
Codec ID/Info : Advanced Video Coding
Duration : 3 h 26 min
Bit rate : 640 kb/s
Width : 640 pixels
Height : 480 pixels
Display aspect ratio : 16:9
Frame rate mode : Constant
Frame rate : 30.000 FPS
Color space : YUV
Chroma subsampling : 4:2:0
Bit depth : 8 bits
Scan type : Progressive
Bits/(Pixel*Frame) : 0.069
Stream size : 947 MiB (83%)
Writing library : x264 core

Audio
ID : 2
Format : AAC
Format/Info : Advanced Audio Codec
Format profile : LC
Codec ID : mp4a-40-2
Duration : 3 h 26 min
Bit rate mode : Constant
Bit rate : 128 kb/s
Channel(s) : 2 channels
Channel positions : Front: L R
Sampling rate : 48.0 kHz
Frame rate : 46.875 FPS (1024 SPF)
Compression mode : Lossy
Stream size : 189 MiB (16%)
Default : Yes
Alternate group : 1


Kód:
http://www.xdisk.cz/cs/download.php?id=F39FEA1C1


Kód:
https://data.hu/get/10882560/Moms_Bang_Teens_24.001
https://data.hu/get/10882573/Moms_Bang_Teens_24.002
https://data.hu/get/10882565/Moms_Bang_Teens_24.003
https://data.hu/get/10882575/Moms_Bang_Teens_24.004
https://data.hu/get/10882569/Moms_Bang_Teens_24.005
https://data.hu/get/10882570/Moms_Bang_Teens_24.006
https://data.hu/get/10882562/Moms_Bang_Teens_24.crc


Kód:
https://data.hu/get/10882561/Moms_Bang_Teens_24.zip