A hűség ár (2003) XXX.DVDRIP.XVID.HUNDUB



General
Complete name : A.huseg.ara.2003.XXX.DVDRIP.XVID.HUNDUB.avi
Format : AVI
Format/Info : Audio Video Interleave
File size : 700 MiB
Duration : 1 h 33 min
Overall bit rate mode : Variable
Overall bit rate : 1 046 kb/s
Writing application : VirtualDubMod 1.5.4.1 (build 2178/release)
Writing library : VirtualDubMod build 2178/release

Video
ID : 0
Format : MPEG-4 Visual
Format profile : Advanced Simple@L5
Format settings : BVOP1 / Custom Matrix
Format settings, BVOP : 1
Format settings, QPel : No
Format settings, GMC : No warppoints
Format settings, Matrix : Custom
Codec ID : XVID
Codec ID/Hint : XviD
Duration : 1 h 33 min
Bit rate : 929 kb/s
Width : 640 pixels
Height : 480 pixels
Display aspect ratio : 4:3
Frame rate : 25.000 FPS
Color space : YUV
Chroma subsampling : 4:2:0
Bit depth : 8 bits
Scan type : Progressive
Compression mode : Lossy
Bits/(Pixel*Frame) : 0.121
Stream size : 622 MiB (89%)
Writing library : XviD 1.2.1 (UTC 2008-12-04)

Audio
ID : 1
Format : MPEG Audio
Format version : Version 1
Format profile : Layer 3
Format settings : Joint stereo / MS Stereo
Mode : Joint stereo
Mode extension : MS Stereo
Codec ID : 55
Codec ID/Hint : MP3
Duration : 1 h 33 min
Bit rate mode : Variable
Bit rate : 104 kb/s
Nominal bit rate : 128 kb/s
Channel(s) : 2 channels
Sampling rate : 48.0 kHz
Compression mode : Lossy
Stream size : 69.8 MiB (10%)
Alignment : Aligned on interleaves
Interleave, duration : 24 ms (0.60 video frame)
Interleave, preload duratio : 482 ms
Writing library : LAME3.97
Encoding settings : -m j -V 4 -q 2 -lowpass 17 --abr 128
Language : Magyar


Kód:
http://www.xdisk.cz/cs/download.php?id=D8A929831


Kód:
https://data.hu/get/10864387/A.huseg.ara.2003.XXX.DVDRIP.XVID.HUNDUB.001
https://data.hu/get/10864386/A.huseg.ara.2003.XXX.DVDRIP.XVID.HUNDUB.002
https://data.hu/get/10864388/A.huseg.ara.2003.XXX.DVDRIP.XVID.HUNDUB.003
https://data.hu/get/10864390/A.huseg.ara.2003.XXX.DVDRIP.XVID.HUNDUB.004
https://data.hu/get/10864391/A.huseg.ara.2003.XXX.DVDRIP.XVID.HUNDUB.crc


Kód:
https://data.hu/get/10864389/A.huseg.ara.2003.XXX.DVDRIP.XVID.HUNDUB.avi.zip