A leopárd (1995) XXX.VHSRIP.XVID.HUNDUB



General
Complete name : A.leopard.1995.XXX.VHSRIP.XVID.HUNDUB-PORNOLOVERBLOG.avi
Format : AVI
Format/Info : Audio Video Interleave
File size : 907 MiB
Duration : 1 h 38 min
Overall bit rate : 1 289 kb/s
Writing library : Boilsoft Joiner build 2411/release

Video
ID : 0
Format : MPEG-4 Visual
Format profile : Advanced Simple@L5
Format settings : BVOP2
Format settings, BVOP : 2
Format settings, QPel : No
Format settings, GMC : No warppoints
Format settings, Matrix : Default (H.263)
Codec ID : XVID
Codec ID/Hint : XviD
Duration : 1 h 38 min
Bit rate : 1 151 kb/s
Width : 640 pixels
Height : 480 pixels
Display aspect ratio : 4:3
Frame rate : 25.000 FPS
Color space : YUV
Chroma subsampling : 4:2:0
Bit depth : 8 bits
Scan type : Progressive
Compression mode : Lossy
Bits/(Pixel*Frame) : 0.150
Stream size : 810 MiB (89%)
Writing library : XviD 1.2.1 (UTC 2008-12-04)

Audio
ID : 1
Format : MPEG Audio
Format version : Version 1
Format profile : Layer 3
Format settings : Joint stereo
Mode : Joint stereo
Codec ID : 55
Codec ID/Hint : MP3
Duration : 1 h 38 min
Bit rate mode : Constant
Bit rate : 128 kb/s
Channel(s) : 2 channels
Sampling rate : 44.1 kHz
Compression mode : Lossy
Stream size : 90.1 MiB (10%)
Alignment : Split accross interleaves
Interleave, duration : 40 ms (1.00 video frame)
Interleave, preload duratio : 500 ms


Kód:
http://www.xdisk.cz/cs/download.php?id=9B14B28D1


Kód:
https://data.hu/get/10864383/A.leopard.1995.XXX.VHSRIP.XVID.HUNDUB-PORNOLOVERBLOG.001
https://data.hu/get/10864382/A.leopard.1995.XXX.VHSRIP.XVID.HUNDUB-PORNOLOVERBLOG.002
https://data.hu/get/10864381/A.leopard.1995.XXX.VHSRIP.XVID.HUNDUB-PORNOLOVERBLOG.003
https://data.hu/get/10864377/A.leopard.1995.XXX.VHSRIP.XVID.HUNDUB-PORNOLOVERBLOG.004
https://data.hu/get/10864379/A.leopard.1995.XXX.VHSRIP.XVID.HUNDUB-PORNOLOVERBLOG.005
https://data.hu/get/10864378/A.leopard.1995.XXX.VHSRIP.XVID.HUNDUB-PORNOLOVERBLOG.crc


Kód:
https://data.hu/get/10864380/A.leopard.1995.XXX.VHSRIP.XVID.HUNDUB-PORNOLOVERBLOG.avi.zip