Pusztaszex XXX.WEBRIP.HUNDUB.WMV



General
Complete name : Pusztaszex.XXX.WEBRIP.HUNDUB.WMV-PORNOLOVERBLOG.wmv
Format : Windows Media
File size : 973 MiB
Duration : 1 h 1 min
Overall bit rate mode : Constant
Overall bit rate : 2 201 kb/s
Maximum Overall bit rate : 2 210 kb/s
Encoded date : UTC 2008-07-06 10:18:09.567

Video
ID : 2
Format : VC-1
Format profile : MP@ML
Codec ID : WMV3
Codec ID/Info : Windows Media Video 9
Codec ID/Hint : WMV3
Description of the codec : Windows Media Video 9 - Professional
Duration : 1 h 1 min
Bit rate mode : Constant
Bit rate : 2 000 kb/s
Width : 720 pixels
Height : 576 pixels
Display aspect ratio : 4:3
Frame rate : 25.000 FPS
Standard : PAL
Color space : YUV
Chroma subsampling : 4:2:0
Bit depth : 8 bits
Scan type : Progressive
Compression mode : Lossy
Bits/(Pixel*Frame) : 0.193
Stream size : 885 MiB (91%)

Audio
ID : 1
Format : WMA
Format version : Version 2
Codec ID : 161
Codec ID/Info : Windows Media Audio
Description of the codec : Windows Media Audio 9.2 - 192 kbps, 44 kHz, stereo 1-pass CBR
Duration : 1 h 1 min
Bit rate mode : Constant
Bit rate : 192 kb/s
Channel(s) : 2 channels
Sampling rate : 44.1 kHz
Bit depth : 16 bits
Stream size : 84.9 MiB (9%)


Kód:
http://www.xdisk.cz/cs/download.php?id=8C5E360B1


Kód:
https://data.hu/get/10967526/Pusztaszex.XXX.WEBRIP.HUNDUB.WMV-PORNOLOVERBLOG.001
https://data.hu/get/10967528/Pusztaszex.XXX.WEBRIP.HUNDUB.WMV-PORNOLOVERBLOG.002
https://data.hu/get/10967525/Pusztaszex.XXX.WEBRIP.HUNDUB.WMV-PORNOLOVERBLOG.003
https://data.hu/get/10967531/Pusztaszex.XXX.WEBRIP.HUNDUB.WMV-PORNOLOVERBLOG.004
https://data.hu/get/10967527/Pusztaszex.XXX.WEBRIP.HUNDUB.WMV-PORNOLOVERBLOG.005
https://data.hu/get/10967530/Pusztaszex.XXX.WEBRIP.HUNDUB.WMV-PORNOLOVERBLOG.crc


Kód:
https://data.hu/get/10967529/Pusztaszex.XXX.WEBRIP.HUNDUB.WMV-PORNOLOVERBLOG.zip