Szaftos szavak (Bad Words) 2013 DVDRip
színes, szinkronizált amerikai vígjáték, 89 perc (18)



Stáb: rendező: Jason Bateman
forgatókönyvíró: Andrew Dodge
producer: Jason Bateman, Jeff Culotta, Ted Hamm, Sean McKittrick, Mason Novick
ügyvezető producer: Darren M. Demetre
zeneszerző: Rolfe Kent
operatőr: Ken Seng
vágó: Tatiana S. Riegel
Szereplők: Jason Bateman (Guy Trilby)
Kathryn Hahn (Jenny Widgeon)
Rohan Chand (Chaitanya Chopra)
Philip Baker Hall (Dr. Bowman)
Allison Janney (Dr. Bernice Deagan)

Tartalom:
A 40 éves Guy Trilby-t annak idején kidobták az iskolából és ezért most alkalma nyílik bosszút állni. Az Arany Penna betűzőverseny szabályzatában ugyanis talál egy óriási hibát és úgy dönt, hogy ezt kihasználva tönkre vágja az egész versenyt.
General
Complete name : szaftos-szavak-2013-Bdrip.avi
Format : AVI
Format/Info : Audio Video Interleave
File size : 1.06 GiB
Duration : 1 h 29 min
Overall bit rate : 1 699 kb/s
Writing application : VirtualDubMod 1.5.10.3 | www.virtualdub-fr.org || (build 2550/release)
Writing library : VirtualDubMod build 2550/release

Video
ID : 0
Format : MPEG-4 Visual
Format profile : Advanced Simple@L5
Format settings : BVOP1
Format settings, BVOP : 1
Format settings, QPel : No
Format settings, GMC : No warppoints
Format settings, Matrix : Default (MPEG)
Codec ID : XVID
Codec ID/Hint : XviD
Duration : 1 h 29 min
Bit rate : 1 306 kb/s
Width : 720 pixels
Height : 304 pixels
Display aspect ratio : 2.35:1
Frame rate : 23.976 (24000/1001) FPS
Color space : YUV
Chroma subsampling : 4:2:0
Bit depth : 8 bits
Scan type : Progressive
Compression mode : Lossy
Bits/(Pixel*Frame) : 0.249
Stream size : 832 MiB (77%)
Writing library : XviD 65

Audio
ID : 1
Format : AC-3
Format/Info : Audio Coding 3
Codec ID : 2000
Duration : 1 h 28 min
Bit rate mode : Constant
Bit rate : 384 kb/s
Channel(s) : 6 channels
Channel positions : Front: L C R, Side: L R, LFE
Sampling rate : 48.0 kHz
Frame rate : 31.250 FPS (1536 SPF)
Bit depth : 16 bits
Compression mode : Lossy
Stream size : 244 MiB (23%)
Alignment : Split accross interleaves
Interleave, duration : 42 ms (1.00 video frame)
Interleave, preload duratio : 500 ms
Service kind : Complete Main


Kód:
https://data.hu/get/11270203/szaftos-szavak-2013-Bdrip.001
https://data.hu/get/11270195/szaftos-szavak-2013-Bdrip.002
https://data.hu/get/11270202/szaftos-szavak-2013-Bdrip.003
https://data.hu/get/11270196/szaftos-szavak-2013-Bdrip.004
https://data.hu/get/11270198/szaftos-szavak-2013-Bdrip.005
https://data.hu/get/11270194/szaftos-szavak-2013-Bdrip.006
https://data.hu/get/11270199/szaftos-szavak-2013-Bdrip.crc


Kód:
https://data.hu/get/11270201/szaftos-szavak-2013-Bdrip.zip