Padre Padrone XXX.DVDRip



Cast: Karma Rosenberg, Sheila Kiss, Rosalia Olmi, Verena, Roberto Malone, Andrea Nobili, Silvio Evangelista, Davide Del Gaudio
General
Complete name : Padre Padrone.mp4
Format : MPEG-4
Format profile : Base Media
Codec ID : isom (isom/iso2/avc1/mp41)
File size : 444 MiB
Duration : 1 h 23 min
Overall bit rate : 746 kb/s
Writing application : Lavf57.41.100

Video
ID : 1
Format : AVC
Format/Info : Advanced Video Codec
Format profile : High@L3
Format settings : CABAC / 3 Ref Frames
Format settings, CABAC : Yes
Format settings, ReFrames : 3 frames
Codec ID : avc1
Codec ID/Info : Advanced Video Coding
Duration : 1 h 23 min
Bit rate : 640 kb/s
Width : 640 pixels
Height : 480 pixels
Display aspect ratio : 4:3
Frame rate mode : Constant
Frame rate : 25.000 FPS
Color space : YUV
Chroma subsampling : 4:2:0
Bit depth : 8 bits
Scan type : Progressive
Bits/(Pixel*Frame) : 0.083
Stream size : 382 MiB (86%)
Writing library : x264

Audio
ID : 2
Format : AAC
Format/Info : Advanced Audio Codec
Format profile : LC
Codec ID : mp4a-40-2
Duration : 1 h 23 min
Bit rate mode : Constant
Bit rate : 96.0 kb/s
Channel(s) : 2 channels
Channel positions : Front: L R
Sampling rate : 44.1 kHz
Frame rate : 43.066 FPS (1024 SPF)
Compression mode : Lossy
Stream size : 57.4 MiB (13%)
Default : Yes
Alternate group : 1


Kód:
https://data.hu/get/11271069/Padre_Padrone.001
https://data.hu/get/11271074/Padre_Padrone.002
https://data.hu/get/11271075/Padre_Padrone.003
https://data.hu/get/11271070/Padre_Padrone.004
https://data.hu/get/11271071/Padre_Padrone.005
https://data.hu/get/11271073/Padre_Padrone.crc


Kód:
https://data.hu/get/11271072/Padre_Padrone.zip


Kód:
https://datoporn.co/wet9og41hoo5