Moms Bang Teens. 27 (2018) XXX.DVDRip



Cast: Reagan Foxx, Gina Valentina, Karlee Grey, Bridgette B, Jill Kassidy, Bailey Brooke, Lea Lexis, Kristen Scott, Evelin Stone, Blake Morgan, Alana Luv General
General
Complete name : MomsBangTeens27.mp4
Format : MPEG-4
Format profile : Base Media
Codec ID : isom (isom/iso2/avc1/mp41)
File size : 2.12 GiB
Duration : 3 h 26 min
Overall bit rate mode : Variable
Overall bit rate : 1 475 kb/s
Encoded date : UTC 2018-06-13 08:49:34
Tagged date : UTC 2018-06-13 08:49:34
Writing application : Lavf51.12.1

Video
ID : 1
Format : AVC
Format/Info : Advanced Video Codec
Format profile : Baseline@L1.3
Format settings : 1 Ref Frames
Format settings, CABAC : No
Format settings, ReFrames : 1 frame
Format settings, GOP : M=1, N=12
Codec ID : avc1
Codec ID/Info : Advanced Video Coding
Duration : 3 h 26 min
Bit rate : 1 361 kb/s
Width : 856 pixels
Height : 480 pixels
Display aspect ratio : 16:9
Frame rate mode : Variable
Frame rate : 23.976 (23976/1000) FPS
Minimum frame rate : 3.996 FPS
Maximum frame rate : 23.976 FPS
Color space : YUV
Chroma subsampling : 4:2:0
Bit depth : 8 bits
Scan type : Progressive
Bits/(Pixel*Frame) : 0.138
Stream size : 1.96 GiB (92%)
Encoded date : UTC 2018-06-13 08:49:34
Tagged date : UTC 2018-06-13 08:49:34

Audio
ID : 2
Format : AAC
Format/Info : Advanced Audio Codec
Format profile : LC
Codec ID : mp4a-40-2
Duration : 3 h 26 min
Bit rate mode : Variable
Bit rate : 109 kb/s
Channel(s) : 2 channels
Channel positions : Front: L R
Sampling rate : 44.1 kHz
Frame rate : 43.066 FPS (1024 SPF)
Compression mode : Lossy
Stream size : 161 MiB (7%)
Encoded date : UTC 2018-06-13 08:49:34
Tagged date : UTC 2018-06-13 08:49:34



Kód:
http://www.xdisk.cz/cs/download.php?id=334922091

https://mega.nz/#!XUElCQhC!hcERUL_n5...5_4cJL-j3aOEsc
Kód:
https://data.hu/get/11278910/MomsBangTeens27.001
https://data.hu/get/11278905/MomsBangTeens27.002
https://data.hu/get/11278914/MomsBangTeens27.003
https://data.hu/get/11278916/MomsBangTeens27.004
https://data.hu/get/11278911/MomsBangTeens27.005
https://data.hu/get/11278909/MomsBangTeens27.006
https://data.hu/get/11278912/MomsBangTeens27.007
https://data.hu/get/11278907/MomsBangTeens27.008
https://data.hu/get/11278913/MomsBangTeens27.009
https://data.hu/get/11278906/MomsBangTeens27.010
https://data.hu/get/11278915/MomsBangTeens27.011
https://data.hu/get/11278908/MomsBangTeens27.crc


Kód:
https://data.hu/get/11278816/MomsBangTeens27.001
https://data.hu/get/11278801/MomsBangTeens27.002
https://data.hu/get/11278802/MomsBangTeens27.crc


Kód:
https://datoporn.co/an4ayvb1ro5v