Sex and the City - Le donne si confessano (2000) XXX.DVDRip






Starring: Angelica Bella, Asia D'Argento, Pretty Page, Christina Bella and Isabella (as Rosita Burton or Eveline Switer), Alex Forte, Anthony Di Nunzio, Clark, Mario Rossi, Bob Terminator (as Robert Perry)
General
Complete name : Angelica Bella - Sex and the City Le donne si raccontano.avi
Format : AVI
Format/Info : Audio Video Interleave
File size : 585 MiB
Duration : 55 min 13 s
Overall bit rate : 1 482 kb/s
Movie name : Sex And The City (2000) (Angelica Bella)
Writing library : Boilsoft AVI tool build 30012/release
Copyright : www.pornotalk.org


Video
ID : 0
Format : MPEG-4 Visual
Format settings, BVOP : No
Format settings, QPel : No
Format settings, GMC : No warppoints
Format settings, Matrix : Default (H.263)
Codec ID : DX50
Codec ID/Hint : DivX 5
Duration : 55 min 13 s
Bit rate : 1 248 kb/s
Width : 720 pixels
Height : 576 pixels
Display aspect ratio : 5:4
Frame rate : 25.000 FPS
Standard : PAL
Color space : YUV
Chroma subsampling : 4:2:0
Bit depth : 8 bits
Scan type : Progressive
Compression mode : Lossy
Bits/(Pixel*Frame) : 0.120
Stream size : 493 MiB (84%)
Writing library : DivX 1586


Audio
ID : 1
Format : MPEG Audio
Format version : Version 1
Format profile : Layer 3
Codec ID : 55
Codec ID/Hint : MP3
Duration : 55 min 13 s
Bit rate mode : Constant
Bit rate : 224 kb/s
Channel(s) : 2 channels
Sampling rate : 48.0 kHz
Compression mode : Lossy
Delay relative to video : 16 ms
Stream size : 88.5 MiB (15%)
Alignment : Split accross interleaves
Interleave, duration : 40 ms (1.00 video frame)
Interleave, preload duratio : 500 ms




Kód:
https://data.hu/get/11279243/Angelica_Bella_-_Sex_and_the_City_Le_donne_si_raccontano.001
https://data.hu/get/11279236/Angelica_Bella_-_Sex_and_the_City_Le_donne_si_raccontano.002
https://data.hu/get/11279242/Angelica_Bella_-_Sex_and_the_City_Le_donne_si_raccontano.003
https://data.hu/get/11279234/Angelica_Bella_-_Sex_and_the_City_Le_donne_si_raccontano.004
https://data.hu/get/11279235/Angelica_Bella_-_Sex_and_the_City_Le_donne_si_raccontano.005
https://data.hu/get/11279237/Angelica_Bella_-_Sex_and_the_City_Le_donne_si_raccontano.006
https://data.hu/get/11279241/Angelica_Bella_-_Sex_and_the_City_Le_donne_si_raccontano.crc


Kód:
https://data.hu/get/11279240/Angelica_Bella_-_Sex_and_the_City_Le_donne_si_raccontano.zip


Kód:
https://datoporn.co/40c2713etdxm