L' Incesto (1995) XXX.DVDRip



Starring:Angelica Bella,Deborah Wells,Helena,Judith Ramirez,Lea,Tunde,Veronica Bella, Frank Gun (as Ferenc Juhasz),Jean-Yves Le Castel,Mike Foster,Richard Langin,Yves Baillat
General
Complete name : L'Incesto 1995.mp4
Format : MPEG-4
Format profile : Base Media / Version 2
Codec ID : mp42 (isom/iso2/avc1/mp41)
File size : 517 MiB
Duration : 1 h 20 min
Overall bit rate mode : Variable
Overall bit rate : 895 kb/s
Movie name : L'incesto (1995)
Encoded date : UTC 2016-11-18 22:08:16
Tagged date : UTC 2016-11-18 22:08:16
Writing application : HandBrake 0.10.5 2016021100

Video
ID : 1
Format : AVC
Format/Info : Advanced Video Codec
Format profile : High@L3.1
Format settings : CABAC / 4 Ref Frames
Format settings, CABAC : Yes
Format settings, ReFrames : 4 frames
Codec ID : avc1
Codec ID/Info : Advanced Video Coding
Duration : 1 h 20 min
Bit rate : 856 kb/s
Width : 320 pixels
Height : 240 pixels
Display aspect ratio : 4:3
Frame rate mode : Variable
Frame rate : 23.976 (23976/1000) FPS
Minimum frame rate : 23.974 FPS
Maximum frame rate : 23.981 FPS
Color space : YUV
Chroma subsampling : 4:2:0
Bit depth : 8 bits
Scan type : Progressive
Bits/(Pixel*Frame) : 0.465
Stream size : 489 MiB (95%)
Writing library : x264
Encoded date : UTC 2016-11-18 22:08:16
Tagged date : UTC 2016-11-18 22:08:16
Color range : Limited
Color primaries : BT.601 NTSC
Transfer characteristics : BT.709
Matrix coefficients : BT.601

Audio
ID : 2
Format : AAC
Format/Info : Advanced Audio Codec
Format profile : LC
Codec ID : mp4a-40-2
Duration : 1 h 20 min
Bit rate mode : Variable
Bit rate : 40.1 kb/s
Channel(s) : 2 channels
Channel(s)_Original : 1 channel
Channel positions : Front: C
Sampling rate : 44.1 kHz
Frame rate : 43.066 FPS (1024 SPF)
Compression mode : Lossy
Stream size : 23.2 MiB (4%)
Title : Mono / Mono
Default : Yes
Alternate group : 1
Encoded date : UTC 2016-11-18 22:08:16
Tagged date : UTC 2016-11-18 22:08:16


Kód:
https://data.hu/get/11279432/LIncesto_1995.001
https://data.hu/get/11279435/LIncesto_1995.002
https://data.hu/get/11279433/LIncesto_1995.003
https://data.hu/get/11279434/LIncesto_1995.crc


Kód:
https://data.hu/get/11279431/LIncesto_1995.zip


Kód:
https://datoporn.co/sba0ymmtzkx8