Moms Teach Sex 14 (2018) XXX.DVD.Rip/SD



Director: Nubiles
Actors: Alexis Fawx, Alix Lynx, Elsa Jean, India Summer, Jaclyn Taylor, Kenzie Reeves

General
Complete name : C: Moms Teach Sex 14.mp4
Format : MPEG-4
Format profile : Base Media
Codec ID : isom (isom/iso2/avc1/mp41)
File size : 823 MiB
Duration : 2 h 7 min
Overall bit rate : 905 kb/s
Writing application : Lavf57.83.100

Video
ID : 1
Format : AVC
Format/Info : Advanced Video Codec
Format profile : High@L3.1
Format settings : CABAC / 5 Ref Frames
Format settings, CABAC : Yes
Format settings, ReFrames : 5 frames
Codec ID : avc1
Codec ID/Info : Advanced Video Coding
Duration : 2 h 7 min
Bit rate : 768 kb/s
Width : 720 pixels
Height : 480 pixels
Display aspect ratio : 16:9
Original display aspect rat : 16:9
Frame rate mode : Constant
Frame rate : 29.970 (29970/1000) FPS
Standard : NTSC
Color space : YUV
Chroma subsampling : 4:2:0
Bit depth : 8 bits
Scan type : Progressive
Bits/(Pixel*Frame) : 0.074
Stream size : 700 MiB (85%)
Writing library : x264

Audio
ID : 2
Format : AAC
Format/Info : Advanced Audio Codec
Format profile : LC
Codec ID : mp4a-40-2
Duration : 2 h 7 min
Duration_LastFrame : 1 ms
Bit rate mode : Constant
Bit rate : 128 kb/s
Channel(s) : 2 channels
Channel positions : Front: L R
Sampling rate : 44.1 kHz
Frame rate : 43.066 FPS (1024 SPF)
Compression mode : Lossy
Stream size : 116 MiB (14%)
Default : Yes
Alternate group : 1


Kód:
https://data.hu/get/11170342/Moms_Teach_Sex_14.001
https://data.hu/get/11170341/Moms_Teach_Sex_14.002
https://data.hu/get/11170343/Moms_Teach_Sex_14.003
https://data.hu/get/11170346/Moms_Teach_Sex_14.004
https://data.hu/get/11170344/Moms_Teach_Sex_14.005
https://data.hu/get/11170345/Moms_Teach_Sex_14.crc


Kód:
https://data.hu/get/11170347/Moms_Teach_Sex_14.zip