Vadászat a Vörös Októberre - (The Hunt for Red October) 1990 DVDRip
színes, szinkronizált amerikai akciófilm, 134 perc



Stáb: rendező: John McTiernan
író: Tom Clancy
forgatókönyvíró: Larry Ferguson, Donald Stewart
producer: Mace Neufeld
ügyvezető producer: Larry DeWaay, Jerry Sherlock
zeneszerző: Basil Poledouris
operatőr: Jan de Bont
látványtervező: Terence Marsh
vágó: John Wright, Dennis Virkler

Szereplők:
Sean Connery (Marko Ramius)
Alec Baldwin (Jack Ryan)
Scott Glenn (Bart Mancuso)
Sam Neill (Vasili Borodin kapitány)
James Earl Jones (James Greer admirális)
Tim Curry (Dr. Jevgenyij Petrov)
Courtney B. Vance (Jones matróz)
Stellan Skarsgård (Viktor Tupoljev kapitány)
Peter Firth (Ivan Putyin)
Daniel Davis (Davenport kapitány)
Anthony Peck (Thompson hadnagy - USS Dallas)

Tartalom:
A Vörös Október a legújabb, szupertechnikával felszerelt szovjet atomtengeralattjáró az Egyesült Államok partjai felé tart. Az amerikai kormány attól fél, hogy akcióra készül. Egyedül Jack Ryan a CIA szakértője gondolja, hogy az atom-tengeralattjáró litván parancsnoka dezertálni akar. A valóság még cifrább: Ramius kapitány át akarja játszani a modern hadieszközt az amerikaiaknak, hogy a szovjetek ne kerüljenek egyoldalú fölénybe. Az USA hírszerzése támadásként értelmezi a gépóriás mozgását és beindítja ellene hadigépezetét, miközben a szökést sejtő oroszok is üldözőbe veszik a tengeralattjárót. A parancsnoknak minden leleményességét össze kell szednie, hogy kivághassa magát a kettős szorításból...

A Tom Clancy bestseller regénye nyomán készült csúcsmozi egy trilógia első része, mely a Férfias játékok és a Végveszélyben című filmekkel folytatódik...

General
Complete name : Vadaszat_a_Voros_Oktoberre_-_The_Hunt_for_Red_October_1990.avi
Format : AVI
Format/Info : Audio Video Interleave
File size : 1.75 GiB
Duration : 2 h 15 min
Overall bit rate : 1 852 kb/s
Writing application : VirtualDubMod 1.5.10.3 | www.virtualdub-fr.org || (build 2550/release)
Writing library : VirtualDubMod build 2550/release

Video
ID : 0
Format : MPEG-4 Visual
Format profile : Advanced Simple@L5
Format settings : BVOP1
Format settings, BVOP : 1
Format settings, QPel : No
Format settings, GMC : No warppoints
Format settings, Matrix : Default (MPEG)
Codec ID : XVID
Codec ID/Hint : XviD
Duration : 2 h 15 min
Bit rate : 1 459 kb/s
Width : 720 pixels
Height : 304 pixels
Display aspect ratio : 2.35:1
Original display aspect rat : 2.35:1
Frame rate : 23.976 (24000/1001) FPS
Color space : YUV
Chroma subsampling : 4:2:0
Bit depth : 8 bits
Scan type : Progressive
Compression mode : Lossy
Bits/(Pixel*Frame) : 0.278
Stream size : 1.38 GiB (79%)
Writing library : XviD 1.2.1 (UTC 2008-12-04)

Audio
ID : 1
Format : AC-3
Format/Info : Audio Coding 3
Codec ID : 2000
Duration : 2 h 15 min
Bit rate mode : Constant
Bit rate : 384 kb/s
Channel(s) : 6 channels
Channel positions : Front: L C R, Side: L R, LFE
Sampling rate : 48.0 kHz
Frame rate : 31.250 FPS (1536 SPF)
Bit depth : 16 bits
Compression mode : Lossy
Stream size : 371 MiB (21%)
Alignment : Split accross interleaves
Interleave, duration : 42 ms (1.00 video frame)
Interleave, preload duratio : 500 ms
Service kind : Complete Main


Kód:
https://data.hu/get/11334025/Vadaszat_a_Voros_Oktoberre_-_The_Hunt_for_Red_October_1990.001
https://data.hu/get/11334022/Vadaszat_a_Voros_Oktoberre_-_The_Hunt_for_Red_October_1990.002
https://data.hu/get/11334017/Vadaszat_a_Voros_Oktoberre_-_The_Hunt_for_Red_October_1990.003
https://data.hu/get/11334024/Vadaszat_a_Voros_Oktoberre_-_The_Hunt_for_Red_October_1990.004
https://data.hu/get/11334019/Vadaszat_a_Voros_Oktoberre_-_The_Hunt_for_Red_October_1990.005
https://data.hu/get/11334023/Vadaszat_a_Voros_Oktoberre_-_The_Hunt_for_Red_October_1990.006
https://data.hu/get/11334021/Vadaszat_a_Voros_Oktoberre_-_The_Hunt_for_Red_October_1990.007
https://data.hu/get/11334026/Vadaszat_a_Voros_Oktoberre_-_The_Hunt_for_Red_October_1990.008
https://data.hu/get/11334018/Vadaszat_a_Voros_Oktoberre_-_The_Hunt_for_Red_October_1990.009
https://data.hu/get/11334020/Vadaszat_a_Voros_Oktoberre_-_The_Hunt_for_Red_October_1990.crc


Kód:
https://data.hu/get/11334068/Vadaszat_a_Voros_Oktoberre_-_The_Hunt_for_Red_October_1990.zip