Moms Bang Teens 28 (2018) XXX.DVDRip



Tags: Aaliyah Love, Anya Olsen, Brandi Love, Gina Gerson, Kayla Green, Monica Asis, Naomi Woods, Reality Kings, Scarlett Mae, Starri Knight

General
Complete name : Moms Bang Teens 28.MP4.mp4
Format : MPEG-4
Format profile : Base Media
Codec ID : isom (isom/iso2/avc1/mp41)
File size : 1.25 GiB
Duration : 3 h 18 min
Overall bit rate : 901 kb/s
Writing application : Lavf57.83.100

Video
ID : 1
Format : AVC
Format/Info : Advanced Video Codec
Format profile : High@L3.1
Format settings : CABAC / 5 Ref Frames
Format settings, CABAC : Yes
Format settings, ReFrames : 5 frames
Codec ID : avc1
Codec ID/Info : Advanced Video Coding
Duration : 3 h 18 min
Bit rate : 768 kb/s
Width : 768 pixels
Height : 432 pixels
Display aspect ratio : 16:9
Frame rate mode : Constant
Frame rate : 23.976 (24000/1001) FPS
Color space : YUV
Chroma subsampling : 4:2:0
Bit depth : 8 bits
Scan type : Progressive
Bits/(Pixel*Frame) : 0.097
Stream size : 1.06 GiB (85%)
Writing library : x264

Audio
ID : 2
Format : AAC
Format/Info : Advanced Audio Codec
Format profile : LC
Codec ID : mp4a-40-2
Duration : 3 h 18 min
Duration_LastFrame : 21 ms
Bit rate mode : Constant
Bit rate : 128 kb/s
Channel(s) : 2 channels
Channel positions : Front: L R
Sampling rate : 48.0 kHz
Frame rate : 46.875 FPS (1024 SPF)
Compression mode : Lossy
Stream size : 182 MiB (14%)
Default : Yes
Alternate group : 1


Kód:
http://www.xdisk.cz/cs/download.php?id=214A794E1


Kód:
https://mega.nz/#!vJkEkaSS!Ke_F-60LeNwT2bFQBFjlIBNwfTSNdGHL5dHXenPvDBA


Kód:
https://data.hu/get/11390371/Moms_Bang_Teens_28.MP4.001
https://data.hu/get/11390372/Moms_Bang_Teens_28.MP4.002
https://data.hu/get/11390367/Moms_Bang_Teens_28.MP4.003
https://data.hu/get/11390365/Moms_Bang_Teens_28.MP4.004
https://data.hu/get/11390373/Moms_Bang_Teens_28.MP4.005
https://data.hu/get/11390370/Moms_Bang_Teens_28.MP4.006
https://data.hu/get/11390366/Moms_Bang_Teens_28.MP4.007
https://data.hu/get/11390364/Moms_Bang_Teens_28.MP4.crc


Kód:
https://data.hu/get/11390369/Moms_Bang_Teens_28.MP4.mp4.zip


Kód:
https://datoporn.co/62thb2do3e86