The Art Of Older Women (2017) XXX.DVDRip



Cast: Abby Cross, Abella Danger, Alexis Fawx, Alice March, Cherie DeVille, Kylie Page, Stills By Alan, Vega Vixen, Vicki Chase

General
Complete name : tharofolwo.mp4
Format : MPEG-4
Format profile : Base Media
Codec ID : isom (isom/iso2/avc1/mp41)
File size : 907 MiB
Duration : 2 h 5 min
Overall bit rate : 1 012 kb/s
Writing application : Lavf57.56.100

Video
ID : 1
Format : AVC
Format/Info : Advanced Video Codec
Format profile : High@L3.1
Format settings : CABAC / 5 Ref Frames
Format settings, CABAC : Yes
Format settings, ReFrames : 5 frames
Codec ID : avc1
Codec ID/Info : Advanced Video Coding
Duration : 2 h 5 min
Bit rate : 866 kb/s
Width : 720 pixels
Height : 406 pixels
Display aspect ratio : 16:9
Frame rate mode : Constant
Frame rate : 23.976 (24000/1001) FPS
Color space : YUV
Chroma subsampling : 4:2:0
Bit depth : 8 bits
Scan type : Progressive
Bits/(Pixel*Frame) : 0.124
Stream size : 776 MiB (86%)
Writing library : x264

Audio
ID : 2
Format : AAC
Format/Info : Advanced Audio Codec
Format profile : LC
Codec ID : mp4a-40-2
Duration : 2 h 5 min
Bit rate mode : Constant
Bit rate : 141 kb/s
Channel(s) : 2 channels
Channel positions : Front: L R
Sampling rate : 48.0 kHz
Frame rate : 46.875 FPS (1024 SPF)
Compression mode : Lossy
Stream size : 126 MiB (14%)
Default : Yes
Alternate group : 1


Kód:
http://www.xdisk.cz/cs/download.php?id=90270FA71


Kód:
https://mega.nz/#!bHYAyaCB!5YBG8g-yTOPw5fEQtoLML5KXNhmvAJTC4txj33KdeiA


Kód:
https://data.hu/get/11426575/tharofolwo.001
https://data.hu/get/11426577/tharofolwo.002
https://data.hu/get/11426571/tharofolwo.003
https://data.hu/get/11426573/tharofolwo.004
https://data.hu/get/11426576/tharofolwo.005
https://data.hu/get/11426574/tharofolwo.crc


Kód:
https://data.hu/get/11426570/tharofolwo.zip


Kód:
https://datoporn.co/3fxwk41723we