Szenvedélyek városa XXX.DVDRip



General
Complete name : szenvedelyek varosa.avi
Format : AVI
Format/Info : Audio Video Interleave
File size : 1.37 GiB
Duration : 2 h 9 min
Overall bit rate : 1 515 kb/s
Writing application : FairUse Wizard - http://fairusewizard.com
Writing library : The best and REALLY easy backup tool

Video
ID : 0
Format : MPEG-4 Visual
Format profile : Advanced Simple@L5
Format settings : BVOP1
Format settings, BVOP : 1
Format settings, QPel : No
Format settings, GMC : No warppoints
Format settings, Matrix : Default (MPEG)
Muxing mode : Packed bitstream
Codec ID : XVID
Codec ID/Hint : XviD
Duration : 2 h 9 min
Bit rate : 1 378 kb/s
Width : 640 pixels
Height : 448 pixels
Display aspect ratio : 1.429
Frame rate : 25.000 FPS
Color space : YUV
Chroma subsampling : 4:2:0
Bit depth : 8 bits
Scan type : Progressive
Compression mode : Lossy
Bits/(Pixel*Frame) : 0.192
Stream size : 1.24 GiB (91%)
Writing library : XviD 1.2.0.dev47 (UTC 2006-11-01)

Audio
ID : 1
Format : MPEG Audio
Format version : Version 1
Format profile : Layer 3
Format settings : Joint stereo / MS Stereo
Codec ID : 55
Codec ID/Hint : MP3
Duration : 2 h 9 min
Bit rate mode : Constant
Bit rate : 128 kb/s
Channel(s) : 2 channels
Sampling rate : 48.0 kHz
Frame rate : 41.667 FPS (1152 SPF)
Compression mode : Lossy
Stream size : 118 MiB (8%)
Alignment : Aligned on interleaves
Interleave, duration : 40 ms (1.00 video frame)
Interleave, preload duratio : 504 ms
Writing library : LAME3.97
Encoding settings : -m j -V 4 -q 2 -lowpass 17 -b 128


Kód:
http://www.xdisk.cz/cs/download.php?id=0829CC9A1


Kód:
https://mega.nz/#!2a5zEJZT!BZrywjVGU4dSgaL5EyH9vtEFJLwrcM8wNR_LDEq6cBA


Kód:
https://data.hu/get/11427302/szenvedelyek_varosa.001
https://data.hu/get/11427296/szenvedelyek_varosa.002
https://data.hu/get/11427299/szenvedelyek_varosa.003
https://data.hu/get/11427295/szenvedelyek_varosa.004
https://data.hu/get/11427294/szenvedelyek_varosa.005
https://data.hu/get/11427303/szenvedelyek_varosa.006
https://data.hu/get/11427297/szenvedelyek_varosa.007
https://data.hu/get/11427300/szenvedelyek_varosa.crc


Kód:
https://data.hu/get/11427298/szenvedelyek_varosa.zip


Kód:
https://datoporn.co/oxggf2ev2eoz