Eredmény: 1 - 13 (13) összesen
  1. #1
    Status
    Offline
    lion46 logója
    Adminisztrátor
    Csatlakozott
    15-07-17
    Életkor
    52
    Összes hozzászólás
    2.676
    Thanks : 0
    Thanked 0 Times in 0 Posts
    Hírnév szint
    10

    Swingers Orgies (2011) 01-13 rész

    Swingers Orgies (2011) XXX.DVDRip



    Ally Style, Angie, Ewe Sweet, Ferrera Gomez, George Uhl, JJ, Kamil Klein, Kari, Kitty Jane, Maggies, Mark Zicha, Neeo, Niki Sweet, Steve Q, Thomas Crown, Tiffany, Wein Lewis

    General
    Complete name : Swingers Orgies.mp4
    Format : MPEG-4
    Format profile : Base Media
    Codec ID : isom (isom/iso2/avc1/mp41)
    File size : 382 MiB
    Duration : 1 h 40 min
    Overall bit rate : 532 kb/s
    Writing application : Lavf57.56.101

    Video
    ID : 1
    Format : AVC
    Format/Info : Advanced Video Codec
    Format profile : High@L3.1
    Format settings : CABAC / 5 Ref Frames
    Format settings, CABAC : Yes
    Format settings, ReFrames : 5 frames
    Codec ID : avc1
    Codec ID/Info : Advanced Video Coding
    Duration : 1 h 40 min
    Bit rate : 448 kb/s
    Width : 608 pixels
    Height : 336 pixels
    Display aspect ratio : 16:9
    Frame rate mode : Constant
    Frame rate : 23.976 (24000/1001) FPS
    Color space : YUV
    Chroma subsampling : 4:2:0
    Bit depth : 8 bits
    Scan type : Progressive
    Bits/(Pixel*Frame) : 0.091
    Stream size : 321 MiB (84%)
    Writing library : x264
    Codec configuration box : avcC

    Audio
    ID : 2
    Format : AAC LC
    Format/Info : Advanced Audio Codec Low Complexity
    Codec ID : mp4a-40-2
    Duration : 1 h 40 min
    Bit rate mode : Constant
    Bit rate : 80.2 kb/s
    Channel(s) : 2 channels
    Channel layout : L R
    Sampling rate : 48.0 kHz
    Frame rate : 46.875 FPS (1024 SPF)
    Compression mode : Lossy
    Stream size : 57.6 MiB (15%)
    Default : Yes
    Alternate group : 1


    Kód:
    http://www.xdisk.cz/cs/download.php?id=643178901


    Kód:
    https://mega.nz/#!fJsk1YoJ!ZIZEgJpe_ImYNb0Ihg2VDjMRDN42RheHALo_9QzM2PQ


    Kód:
    https://data.hu/get/11454272/Swingers_Orgies.001
    https://data.hu/get/11454273/Swingers_Orgies.002
    https://data.hu/get/11454271/Swingers_Orgies.crc


    Kód:
    https://data.hu/get/11454274/Swingers_Orgies.zip


    Kód:
    https://datoporn.co/gtpx9gjdez5d

  2. #2
    Status
    Offline
    lion46 logója
    Adminisztrátor
    Csatlakozott
    15-07-17
    Életkor
    52
    Összes hozzászólás
    2.676
    Thanks : 0
    Thanked 0 Times in 0 Posts
    Hírnév szint
    10

    Swingers Orgies 02 (2012)

    Swingers Orgies 02 (2012) XXX.DVDRip



    Tags: Barra Brass, Bella Baby, Iwia, K.K., Leonelle Knoxville, Lucy Bell, Rihanna Samuel, Samantha, Sweet Cat, Veronica Diamond

    General
    Complete name : Swingers Orgies 02.mp4
    Format : MPEG-4
    Format profile : Base Media
    Codec ID : isom (isom/iso2/avc1/mp41)
    File size : 589 MiB
    Duration : 1 h 37 min
    Overall bit rate : 847 kb/s
    Writing application : Lavf57.56.101

    Video
    ID : 1
    Format : AVC
    Format/Info : Advanced Video Codec
    Format profile : High@L3.1
    Format settings : CABAC / 5 Ref Frames
    Format settings, CABAC : Yes
    Format settings, ReFrames : 5 frames
    Codec ID : avc1
    Codec ID/Info : Advanced Video Coding
    Duration : 1 h 37 min
    Bit rate : 704 kb/s
    Width : 852 pixels
    Height : 480 pixels
    Display aspect ratio : 16:9
    Frame rate mode : Constant
    Frame rate : 29.970 (30000/1001) FPS
    Color space : YUV
    Chroma subsampling : 4:2:0
    Bit depth : 8 bits
    Scan type : Progressive
    Bits/(Pixel*Frame) : 0.057
    Stream size : 487 MiB (83%)
    Writing library : x264
    Language : English

    Audio
    ID : 2
    Format : AAC
    Format/Info : Advanced Audio Codec
    Format profile : LC
    Codec ID : mp4a-40-2
    Duration : 1 h 37 min
    Bit rate mode : Constant
    Bit rate : 140 kb/s
    Channel(s) : 2 channels
    Channel positions : Front: L R
    Sampling rate : 48.0 kHz
    Frame rate : 46.875 FPS (1024 SPF)
    Compression mode : Lossy
    Stream size : 97.0 MiB (16%)
    Language : English
    Default : Yes
    Alternate group : 1


    Kód:
    http://www.xdisk.cz/cs/download.php?id=9CE837731


    Kód:
    https://mega.nz/#!CIVlRCxS!OS6-tDZ_zzfIuiUk3o_hwv9KzNuN74Xc-35TFQnhFzk


    Kód:
    https://data.hu/get/11454413/Swingers_Orgies_02.001
    https://data.hu/get/11454415/Swingers_Orgies_02.002
    https://data.hu/get/11454416/Swingers_Orgies_02.003
    https://data.hu/get/11454414/Swingers_Orgies_02.crc


    Kód:
    https://data.hu/get/11454418/Swingers_Orgies_02.zip


    Kód:
    https://datoporn.co/5bl12kp3bb09

  3. #3
    Status
    Offline
    lion46 logója
    Adminisztrátor
    Csatlakozott
    15-07-17
    Életkor
    52
    Összes hozzászólás
    2.676
    Thanks : 0
    Thanked 0 Times in 0 Posts
    Hírnév szint
    10

    Swingers Orgies 03 (2011)

    Swingers Orgies 03 (2011) XXX.DVDRip



    Tags: Bella Karina, Denisa Heaven, K.K., Kristine Crystalis, Mea Melone, Mona Lee, Samantha Jolie, Stacy Silver, Victoria Puppy, Yenna

    General
    Complete name : Swingers Orgies 03.mp4
    Format : MPEG-4
    Format profile : Base Media
    Codec ID : isom (isom/iso2/avc1/mp41)
    File size : 904 MiB
    Duration : 1 h 35 min
    Overall bit rate : 1 318 kb/s
    Writing application : Lavf57.56.101

    Video
    ID : 1
    Format : AVC
    Format/Info : Advanced Video Codec
    Format profile : High@L3.1
    Format settings : CABAC / 5 Ref Frames
    Format settings, CABAC : Yes
    Format settings, ReFrames : 5 frames
    Codec ID : avc1
    Codec ID/Info : Advanced Video Coding
    Duration : 1 h 35 min
    Bit rate : 1 216 kb/s
    Width : 1 280 pixels
    Height : 720 pixels
    Display aspect ratio : 16:9
    Frame rate mode : Constant
    Frame rate : 29.970 (30000/1001) FPS
    Color space : YUV
    Chroma subsampling : 4:2:0
    Bit depth : 8 bits
    Scan type : Progressive
    Bits/(Pixel*Frame) : 0.044
    Stream size : 836 MiB (92%)
    Writing library : x264

    Audio
    ID : 2
    Format : AAC
    Format/Info : Advanced Audio Codec
    Format profile : LC
    Codec ID : mp4a-40-2
    Duration : 1 h 35 min
    Bit rate mode : Constant
    Bit rate : 91.8 kb/s
    Channel(s) : 2 channels
    Channel positions : Front: L R
    Sampling rate : 44.1 kHz
    Frame rate : 43.066 FPS (1024 SPF)
    Compression mode : Lossy
    Stream size : 63.0 MiB (7%)
    Default : Yes
    Alternate group : 1


    Kód:
    http://www.xdisk.cz/cs/download.php?id=700901221


    Kód:
    https://mega.nz/#!yE0hSYqI!c6CYHi45Mpcc22nSn3H1cjlE6m7NKFx-PBqFte3EmuM


    Kód:
    https://data.hu/get/11454427/Swingers_Orgies_03.001
    https://data.hu/get/11454428/Swingers_Orgies_03.002
    https://data.hu/get/11454425/Swingers_Orgies_03.003
    https://data.hu/get/11454424/Swingers_Orgies_03.004
    https://data.hu/get/11454422/Swingers_Orgies_03.005
    https://data.hu/get/11454423/Swingers_Orgies_03.crc


    Kód:
    https://data.hu/get/11454426/Swingers_Orgies_03.zip


    Kód:
    https://datoporn.co/6a09gphqwlqf

  4. #4
    Status
    Offline
    lion46 logója
    Adminisztrátor
    Csatlakozott
    15-07-17
    Életkor
    52
    Összes hozzászólás
    2.676
    Thanks : 0
    Thanked 0 Times in 0 Posts
    Hírnév szint
    10

    Swingers Orgies 04 (2012)

    Swingers Orgies 04 (2012) XXXX.DVDRip



    Tags: Beatrice, Bella Morgan, Enza, Gina Devine, Isabella Christyn, Jenna Lovely, K.K., Linet Slag, Rachel Evans, Terry Sullivan

    General
    Complete name : Swingers Orgies 04.mp4
    Format : MPEG-4
    Format profile : Base Media
    Codec ID : isom (isom/iso2/avc1/mp41)
    File size : 591 MiB
    Duration : 1 h 57 min
    Overall bit rate : 705 kb/s
    Writing application : Lavf57.56.101

    Video
    ID : 1
    Format : AVC
    Format/Info : Advanced Video Codec
    Format profile : High@L3.1
    Format settings : CABAC / 5 Ref Frames
    Format settings, CABAC : Yes
    Format settings, ReFrames : 5 frames
    Codec ID : avc1
    Codec ID/Info : Advanced Video Coding
    Duration : 1 h 57 min
    Bit rate : 576 kb/s
    Width : 704 pixels
    Height : 396 pixels
    Display aspect ratio : 16:9
    Frame rate mode : Constant
    Frame rate : 23.976 (24000/1001) FPS
    Color space : YUV
    Chroma subsampling : 4:2:0
    Bit depth : 8 bits
    Scan type : Progressive
    Bits/(Pixel*Frame) : 0.086
    Stream size : 480 MiB (81%)
    Writing library : x264

    Audio
    ID : 2
    Format : AAC
    Format/Info : Advanced Audio Codec
    Format profile : LC
    Codec ID : mp4a-40-2
    Duration : 1 h 57 min
    Bit rate mode : Constant
    Bit rate : 128 kb/s
    Channel(s) : 2 channels
    Channel positions : Front: L R
    Sampling rate : 48.0 kHz
    Frame rate : 46.875 FPS (1024 SPF)
    Compression mode : Lossy
    Stream size : 107 MiB (18%)
    Language : English
    Default : Yes
    Alternate group : 1


    Kód:
    http://www.xdisk.cz/cs/download.php?id=6D1327A61


    Kód:
    https://mega.nz/#!ydEXgYqR!FGPEfs5q7vgXm-dOR918t6QgJJyvti2jTcDkYCJWQas


    Kód:
    https://data.hu/get/11454434/Swingers_Orgies_04.001
    https://data.hu/get/11454438/Swingers_Orgies_04.002
    https://data.hu/get/11454436/Swingers_Orgies_04.003
    https://data.hu/get/11454435/Swingers_Orgies_04.crc


    Kód:
    https://data.hu/get/11454437/Swingers_Orgies_04.zip


    Kód:
    https://datoporn.co/mu72wq5wbo91

  5. #5
    Status
    Offline
    lion46 logója
    Adminisztrátor
    Csatlakozott
    15-07-17
    Életkor
    52
    Összes hozzászólás
    2.676
    Thanks : 0
    Thanked 0 Times in 0 Posts
    Hírnév szint
    10

    Swingers Orgies 05 (2013)

    Swingers Orgies 05 (2013) XXX.DVDRip



    Tags: Alice Romain, Charry, Coco De Mal, Gina Gerson, K.K., Leyla Black, Meggy, Nesty, Nikky Thorne, Shalina Devine

    General
    Complete name : Swingers Orgies 05.mp4
    Format : MPEG-4
    Format profile : Base Media
    Codec ID : isom (isom/iso2/avc1/mp41)
    File size : 631 MiB
    Duration : 2 h 5 min
    Overall bit rate : 700 kb/s
    Writing application : Lavf57.56.101

    Video
    ID : 1
    Format : AVC
    Format/Info : Advanced Video Codec
    Format profile : High@L3.1
    Format settings : CABAC / 5 Ref Frames
    Format settings, CABAC : Yes
    Format settings, ReFrames : 5 frames
    Codec ID : avc1
    Codec ID/Info : Advanced Video Coding
    Duration : 2 h 5 min
    Bit rate : 576 kb/s
    Width : 704 pixels
    Height : 396 pixels
    Display aspect ratio : 16:9
    Frame rate mode : Constant
    Frame rate : 23.976 (24000/1001) FPS
    Color space : YUV
    Chroma subsampling : 4:2:0
    Bit depth : 8 bits
    Scan type : Progressive
    Bits/(Pixel*Frame) : 0.086
    Stream size : 516 MiB (82%)
    Writing library : x264

    Audio
    ID : 2
    Format : AAC
    Format/Info : Advanced Audio Codec
    Format profile : LC
    Codec ID : mp4a-40-2
    Duration : 2 h 5 min
    Duration_LastFrame : 1 ms
    Bit rate mode : Constant
    Bit rate : 123 kb/s
    Channel(s) : 2 channels
    Channel positions : Front: L R
    Sampling rate : 48.0 kHz
    Frame rate : 46.875 FPS (1024 SPF)
    Compression mode : Lossy
    Stream size : 111 MiB (18%)
    Language : English
    Default : Yes
    Alternate group : 1


    Kód:
    http://www.xdisk.cz/cs/download.php?id=5D6C3E381


    Kód:
    https://mega.nz/#!3dsHlAqR!msuEyWezNZY8INai5wJIFZMhIyp0scmNVDgaA-hyHBs


    Kód:
    https://data.hu/get/11454439/Swingers_Orgies_05.001
    https://data.hu/get/11454443/Swingers_Orgies_05.002
    https://data.hu/get/11454440/Swingers_Orgies_05.003
    https://data.hu/get/11454441/Swingers_Orgies_05.004
    https://data.hu/get/11454444/Swingers_Orgies_05.crc


    Kód:
    https://data.hu/get/11454442/Swingers_Orgies_05.zip


    Kód:
    https://datoporn.co/tnfpdtecinoh

  6. #6
    Status
    Offline
    lion46 logója
    Adminisztrátor
    Csatlakozott
    15-07-17
    Életkor
    52
    Összes hozzászólás
    2.676
    Thanks : 0
    Thanked 0 Times in 0 Posts
    Hírnév szint
    10

    Swingers Orgies 06 (2013)

    Swingers Orgies 06 (2013) XXX.DVDRip



    Tags: Barra Brass, Bella Baby, Isabella Christyn, Jenna Lovely, K.K., Lucy Bell, Sophia Rocca, Sweet Cat

    General
    Complete name : Swingers Orgies 06.mp4
    Format : MPEG-4
    Format profile : Base Media
    Codec ID : isom (isom/iso2/avc1/mp41)
    File size : 518 MiB
    Duration : 1 h 43 min
    Overall bit rate : 701 kb/s
    Movie name : Downloaded from RARBG.COM
    Writing application : Lavf57.56.101
    Comment : Downloaded from RARBG.COM

    Video
    ID : 1
    Format : AVC
    Format/Info : Advanced Video Codec
    Format profile : High@L3.1
    Format settings : CABAC / 5 Ref Frames
    Format settings, CABAC : Yes
    Format settings, ReFrames : 5 frames
    Codec ID : avc1
    Codec ID/Info : Advanced Video Coding
    Duration : 1 h 43 min
    Bit rate : 576 kb/s
    Width : 704 pixels
    Height : 396 pixels
    Display aspect ratio : 16:9
    Frame rate mode : Constant
    Frame rate : 23.976 (24000/1001) FPS
    Color space : YUV
    Chroma subsampling : 4:2:0
    Bit depth : 8 bits
    Scan type : Progressive
    Bits/(Pixel*Frame) : 0.086
    Stream size : 424 MiB (82%)
    Writing library : x264

    Audio
    ID : 2
    Format : AAC
    Format/Info : Advanced Audio Codec
    Format profile : LC
    Codec ID : mp4a-40-2
    Duration : 1 h 43 min
    Bit rate mode : Constant
    Bit rate : 123 kb/s
    Channel(s) : 2 channels
    Channel positions : Front: L R
    Sampling rate : 48.0 kHz
    Frame rate : 46.875 FPS (1024 SPF)
    Compression mode : Lossy
    Stream size : 90.7 MiB (18%)
    Language : English
    Default : Yes
    Alternate group : 1


    Kód:
    http://www.xdisk.cz/cs/download.php?id=A3EE90F11


    Kód:
    https://mega.nz/#!bY1xRaYL!_lVo8KSK0iX3xDK7sDgHlqbacth950e7jpDN3fgJvTs


    Kód:
    https://data.hu/get/11454453/Swingers_Orgies_06.001
    https://data.hu/get/11454451/Swingers_Orgies_06.002
    https://data.hu/get/11454455/Swingers_Orgies_06.003
    https://data.hu/get/11454454/Swingers_Orgies_06.crc


    Kód:
    https://data.hu/get/11454452/Swingers_Orgies_06.zip


    Kód:
    https://datoporn.co/z04pgkojufdq

  7. #7
    Status
    Offline
    lion46 logója
    Adminisztrátor
    Csatlakozott
    15-07-17
    Életkor
    52
    Összes hozzászólás
    2.676
    Thanks : 0
    Thanked 0 Times in 0 Posts
    Hírnév szint
    10

    Swingers Orgies 07 (2014)

    Swingers Orgies 07 (2014) XXX.DVDRip



    Tags: Angel Piaff, Barra Brass, Blanche Bradburry, Ferrera Gomez, Mia Manarotte, Rachel Evans, Simone Style, Victoria Daniels, Viktoria Redd

    General
    Complete name : Swingers Orgies 07.mp4
    Format : MPEG-4
    Format profile : Base Media
    Codec ID : isom (isom/iso2/avc1/mp41)
    File size : 1.13 GiB
    Duration : 2 h 14 min
    Overall bit rate : 1 207 kb/s
    Writing application : Lavf57.71.100

    Video
    ID : 1
    Format : AVC
    Format/Info : Advanced Video Codec
    Format profile : High@L3.1
    Format settings : CABAC / 5 Ref Frames
    Format settings, CABAC : Yes
    Format settings, ReFrames : 5 frames
    Codec ID : avc1
    Codec ID/Info : Advanced Video Coding
    Duration : 2 h 14 min
    Bit rate : 1 080 kb/s
    Width : 704 pixels
    Height : 396 pixels
    Display aspect ratio : 16:9
    Frame rate mode : Constant
    Frame rate : 23.976 (24000/1001) FPS
    Color space : YUV
    Chroma subsampling : 4:2:0
    Bit depth : 8 bits
    Scan type : Progressive
    Bits/(Pixel*Frame) : 0.162
    Stream size : 1.01 GiB (89%)
    Writing library : x264

    Audio
    ID : 2
    Format : AAC
    Format/Info : Advanced Audio Codec
    Format profile : LC
    Codec ID : mp4a-40-2
    Duration : 2 h 14 min
    Duration_LastFrame : 1 ms
    Bit rate mode : Constant
    Bit rate : 121 kb/s
    Channel(s) : 2 channels
    Channel positions : Front: L R
    Sampling rate : 48.0 kHz
    Frame rate : 46.875 FPS (1024 SPF)
    Compression mode : Lossy
    Stream size : 117 MiB (10%)
    Default : Yes
    Alternate group : 1


    Kód:
    http://www.xdisk.cz/cs/download.php?id=EE458C5C1


    Kód:
    https://mega.nz/#!DUFHnSjC!iXqYMJOvn7QET7UBIrUCY9tkq9oZva2nBwu7pghomaE


    Kód:
    https://data.hu/get/11454655/Swingers_Orgies_07.001
    https://data.hu/get/11454654/Swingers_Orgies_07.002
    https://data.hu/get/11454651/Swingers_Orgies_07.003
    https://data.hu/get/11454656/Swingers_Orgies_07.004
    https://data.hu/get/11454653/Swingers_Orgies_07.005
    https://data.hu/get/11454657/Swingers_Orgies_07.006
    https://data.hu/get/11454652/Swingers_Orgies_07.crc


    Kód:
    https://data.hu/get/11454660/Swingers_Orgies_07.zip


    Kód:
    https://datoporn.co/xihm1nr1byf8

  8. #8
    Status
    Offline
    lion46 logója
    Adminisztrátor
    Csatlakozott
    15-07-17
    Életkor
    52
    Összes hozzászólás
    2.676
    Thanks : 0
    Thanked 0 Times in 0 Posts
    Hírnév szint
    10

    Swingers Orgies 08 (2014)

    Swingers Orgies 08 (2014) XXX.DVDRip



    Tags: Alexis Crystal, Bella Baby, Eveline, Gabrielle Gucci, Gina Monelli, Jenny Simons, Nika, Samantha Johnson, Victoria Daniels

    General
    Complete name : Swingers Orgies 08.mp4
    Format : MPEG-4
    Format profile : Base Media
    Codec ID : isom (isom/iso2/avc1/mp41)
    File size : 473 MiB
    Duration : 1 h 50 min
    Overall bit rate : 601 kb/s
    Writing application : Lavf57.56.101

    Video
    ID : 1
    Format : AVC
    Format/Info : Advanced Video Codec
    Format profile : High@L3
    Format settings : CABAC / 5 Ref Frames
    Format settings, CABAC : Yes
    Format settings, ReFrames : 5 frames
    Codec ID : avc1
    Codec ID/Info : Advanced Video Coding
    Duration : 1 h 50 min
    Bit rate : 499 kb/s
    Width : 720 pixels
    Height : 404 pixels
    Display aspect ratio : 16:9
    Frame rate mode : Constant
    Frame rate : 23.976 (24000/1001) FPS
    Color space : YUV
    Chroma subsampling : 4:2:0
    Bit depth : 8 bits
    Scan type : Progressive
    Bits/(Pixel*Frame) : 0.072
    Stream size : 393 MiB (83%)
    Writing library : x264

    Audio
    ID : 2
    Format : AAC
    Format/Info : Advanced Audio Codec
    Format profile : LC
    Codec ID : mp4a-40-2
    Duration : 1 h 50 min
    Bit rate mode : Constant
    Bit rate : 96.0 kb/s
    Channel(s) : 2 channels
    Channel(s)_Original : 1 channel
    Channel positions : Front: C
    Sampling rate : 44.1 kHz
    Frame rate : 43.066 FPS (1024 SPF)
    Compression mode : Lossy
    Stream size : 75.7 MiB (16%)
    Default : Yes
    Alternate group : 1


    Kód:
    http://www.xdisk.cz/cs/download.php?id=C0E6D8F91


    Kód:
    https://mega.nz/#!LA8mxQRL!mkDhIULPMUwu65efKUJWTFiv_V_oqnNPWkY1olINvhQ


    Kód:
    https://data.hu/get/11454700/Swingers_Orgies_08.001
    https://data.hu/get/11454698/Swingers_Orgies_08.002
    https://data.hu/get/11454696/Swingers_Orgies_08.003
    https://data.hu/get/11454697/Swingers_Orgies_08.crc


    Kód:
    https://data.hu/get/11454699/Swingers_Orgies_08.zip


    Kód:
    https://datoporn.co/6rbcz3hs1y7q

  9. #9
    Status
    Offline
    lion46 logója
    Adminisztrátor
    Csatlakozott
    15-07-17
    Életkor
    52
    Összes hozzászólás
    2.676
    Thanks : 0
    Thanked 0 Times in 0 Posts
    Hírnév szint
    10

    Swingers Orgies 09 (2014)

    Swingers Orgies 09 (2014) XXX.DVDRip



    Tags: Athina, Billy Star, Cathy Heaven, Jenny Simons, K.K., Lara, Lola Wan, Mea Melone, Samantha Jolie, Simony Diamond

    General
    Complete name : Swingers Orgies 09.mp4
    Format : MPEG-4
    Format profile : Base Media
    Codec ID : isom (isom/iso2/avc1/mp41)
    File size : 637 MiB
    Duration : 2 h 7 min
    Overall bit rate : 700 kb/s
    Movie name : RARBG.COM - Swingers.Orgies.9.XXX.DVDRip.x264-CiCXXX
    Writing application : Lavf57.56.101
    Comment : RARBG.COM - Swingers.Orgies.9.XXX.DVDRip.x264-CiCXXX

    Video
    ID : 1
    Format : AVC
    Format/Info : Advanced Video Codec
    Format profile : High@L3.1
    Format settings : CABAC / 5 Ref Frames
    Format settings, CABAC : Yes
    Format settings, ReFrames : 5 frames
    Codec ID : avc1
    Codec ID/Info : Advanced Video Coding
    Duration : 2 h 7 min
    Bit rate : 576 kb/s
    Width : 720 pixels
    Height : 404 pixels
    Display aspect ratio : 16:9
    Frame rate mode : Constant
    Frame rate : 23.976 (24000/1001) FPS
    Color space : YUV
    Chroma subsampling : 4:2:0
    Bit depth : 8 bits
    Scan type : Progressive
    Bits/(Pixel*Frame) : 0.083
    Stream size : 523 MiB (82%)
    Writing library : x264 core

    Audio
    ID : 2
    Format : AAC
    Format/Info : Advanced Audio Codec
    Format profile : LC
    Codec ID : mp4a-40-2
    Duration : 2 h 7 min
    Bit rate mode : Constant
    Bit rate : 122 kb/s
    Channel(s) : 2 channels
    Channel positions : Front: L R
    Sampling rate : 48.0 kHz
    Frame rate : 46.875 FPS (1024 SPF)
    Compression mode : Lossy
    Stream size : 111 MiB (17%)
    Default : Yes
    Alternate group : 1


    Kód:
    http://www.xdisk.cz/cs/download.php?id=F0C436401


    Kód:
    https://mega.nz/#!qE0AVADY!TyF0PgY-FrgyRgqOjkQwUebqTmg3InOGGLpERk5bavI


    Kód:
    https://data.hu/get/11454743/Swingers_Orgies_09.001
    https://data.hu/get/11454745/Swingers_Orgies_09.002
    https://data.hu/get/11454747/Swingers_Orgies_09.003
    https://data.hu/get/11454748/Swingers_Orgies_09.004
    https://data.hu/get/11454744/Swingers_Orgies_09.crc


    Kód:
    https://data.hu/get/11454746/Swingers_Orgies_09.zip


    Kód:
    https://datoporn.co/vjan26ucew9t

  10. #10
    Status
    Offline
    lion46 logója
    Adminisztrátor
    Csatlakozott
    15-07-17
    Életkor
    52
    Összes hozzászólás
    2.676
    Thanks : 0
    Thanked 0 Times in 0 Posts
    Hírnév szint
    10

    Swingers Orgies 10 (2015)

    Swingers Orgies 10 (2015) XXX.DVDRip



    Tags: Mea Melone,Cristal Caitlin, Barra Brass, Victoria Daniels, Laura Crystal, Jenny Simons,Gabriela Danielsova,Kari

    General
    Complete name : Swingers Orgies 10.mp4
    Format : MPEG-4
    Format profile : Base Media
    Codec ID : isom (isom/iso2/avc1/mp41)
    File size : 752 MiB
    Duration : 1 h 47 min
    Overall bit rate mode : Variable
    Overall bit rate : 975 kb/s
    Writing application : Lavf57.38.102

    Video
    ID : 1
    Format : AVC
    Format/Info : Advanced Video Codec
    Format profile : Main@L3.1
    Format settings : CABAC / 4 Ref Frames
    Format settings, CABAC : Yes
    Format settings, ReFrames : 4 frames
    Codec ID : avc1
    Codec ID/Info : Advanced Video Coding
    Duration : 1 h 47 min
    Bit rate : 930 kb/s
    Width : 720 pixels
    Height : 402 pixels
    Display aspect ratio : 16:9
    Frame rate mode : Constant
    Frame rate : 24.000 FPS
    Color space : YUV
    Chroma subsampling : 4:2:0
    Bit depth : 8 bits
    Scan type : Progressive
    Bits/(Pixel*Frame) : 0.134
    Stream size : 717 MiB (95%)
    Writing library : x264
    Tagged date : UTC 2016-10-29 17:30:16

    Audio
    ID : 2
    Format : AAC
    Format/Info : Advanced Audio Codec
    Format profile : LC
    Codec ID : mp4a-40-2
    Duration : 1 h 47 min
    Source duration : 1 h 47 min
    Source_Duration_LastFrame : -21 ms
    Bit rate mode : Variable
    Bit rate : 41.3 kb/s
    Maximum bit rate : 64.0 kb/s
    Channel(s) : 2 channels
    Channel(s)_Original : 1 channel
    Channel positions : Front: C
    Sampling rate : 24.0 kHz
    Frame rate : 23.438 FPS (1024 SPF)
    Compression mode : Lossy
    Stream size : 31.9 MiB (4%)
    Source stream size : 31.9 MiB (4%)
    Default : Yes
    Alternate group : 1
    Tagged date : UTC 2016-10-29 17:30:16


    Kód:
    http://www.xdisk.cz/cs/download.php?id=ED83A5101


    Kód:
    https://mega.nz/#!HVE3DKbZ!twGLLtd8to5ekLBCBE910ho2PKu-svUN0JXgpiBEdGc


    Kód:
    https://data.hu/get/11454823/Swingers_Orgies_10.001
    https://data.hu/get/11454821/Swingers_Orgies_10.002
    https://data.hu/get/11454822/Swingers_Orgies_10.003
    https://data.hu/get/11454824/Swingers_Orgies_10.004
    https://data.hu/get/11454819/Swingers_Orgies_10.crc


    Kód:
    https://data.hu/get/11454820/Swingers_Orgies_10.zip


    Kód:
    https://datoporn.co/zjo7yq96lgsn

  11. #11
    Status
    Offline
    lion46 logója
    Adminisztrátor
    Csatlakozott
    15-07-17
    Életkor
    52
    Összes hozzászólás
    2.676
    Thanks : 0
    Thanked 0 Times in 0 Posts
    Hírnév szint
    10

    Swingers Orgies 11 (2015)

    Swingers Orgies 11 (2015) XXX.DVDrip



    Tags: Blanche Bradburry, Erica Black, K.K., Katy Rose, Kayla Green, Kristy Black, Ria Sunn, Rossella Visconti, Sima, Tiffany Doll

    General
    Complete name : \Swingers Orgies 11.mp4
    Format : MPEG-4
    Format profile : Base Media
    Codec ID : isom (isom/iso2/avc1/mp41)
    File size : 625 MiB
    Duration : 1 h 36 min
    Overall bit rate : 905 kb/s
    Writing application : Lavf57.56.101

    Video
    ID : 1
    Format : AVC
    Format/Info : Advanced Video Codec
    Format profile : High@L3.1
    Format settings : CABAC / 4 Ref Frames
    Format settings, CABAC : Yes
    Format settings, ReFrames : 4 frames
    Codec ID : avc1
    Codec ID/Info : Advanced Video Coding
    Duration : 1 h 36 min
    Bit rate : 768 kb/s
    Width : 854 pixels
    Height : 480 pixels
    Display aspect ratio : 16:9
    Frame rate mode : Variable
    Frame rate : 29.970 (29970/1000) FPS
    Minimum frame rate : 29.960 FPS
    Maximum frame rate : 29.970 FPS
    Color space : YUV
    Chroma subsampling : 4:2:0
    Bit depth : 8 bits
    Scan type : Progressive
    Bits/(Pixel*Frame) : 0.063
    Stream size : 530 MiB (85%)
    Writing library : x264
    Color range : Limited
    Color primaries : BT.601 NTSC
    Transfer characteristics : BT.709
    Matrix coefficients : BT.601

    Audio
    ID : 2
    Format : AAC
    Format/Info : Advanced Audio Codec
    Format profile : LC
    Codec ID : mp4a-40-2
    Duration : 1 h 36 min
    Bit rate mode : Constant
    Bit rate : 128 kb/s
    Channel(s) : 2 channels
    Channel positions : Front: L R
    Sampling rate : 44.1 kHz
    Frame rate : 43.066 FPS (1024 SPF)
    Compression mode : Lossy
    Stream size : 88.4 MiB (14%)
    Default : Yes
    Alternate group : 1


    Kód:
    http://www.xdisk.cz/cs/download.php?id=F80881EC1


    Kód:
    https://mega.nz/#!LJMWRIZL!r1w3jriQQ5SoZBIxC2nNg8fYBdVwCv_v93N-migoXAI


    Kód:
    https://data.hu/get/11454928/Swingers_Orgies_11.001
    https://data.hu/get/11454926/Swingers_Orgies_11.002
    https://data.hu/get/11454925/Swingers_Orgies_11.003
    https://data.hu/get/11454929/Swingers_Orgies_11.004
    https://data.hu/get/11454927/Swingers_Orgies_11.crc


    Kód:
    https://data.hu/get/11454924/Swingers_Orgies_11.zip


    Kód:
    https://datoporn.co/7070ir61p2od

  12. #12
    Status
    Offline
    lion46 logója
    Adminisztrátor
    Csatlakozott
    15-07-17
    Életkor
    52
    Összes hozzászólás
    2.676
    Thanks : 0
    Thanked 0 Times in 0 Posts
    Hírnév szint
    10

    Swingers Orgies 12 (2016)

    Swingers Orgies 12 (2016) XXX.DVDRip



    Tags: Alexis Crystal, Billie Star, Cristal Caitlin, Eva Berger, Eveline Dellai, K.K., Kari, Mea Melone, Nicole Vice, Shara Jones

    General
    Complete name : Swingers Orgies 12.mp4
    Format : MPEG-4
    Format profile : Base Media
    Codec ID : isom (isom/iso2/avc1/mp41)
    File size : 627 MiB
    Duration : 1 h 47 min
    Overall bit rate : 818 kb/s
    Writing application : Lavf57.83.100

    Video
    ID : 1
    Format : AVC
    Format/Info : Advanced Video Codec
    Format profile : High@L3.1
    Format settings : CABAC / 5 Ref Frames
    Format settings, CABAC : Yes
    Format settings, ReFrames : 5 frames
    Codec ID : avc1
    Codec ID/Info : Advanced Video Coding
    Duration : 1 h 47 min
    Bit rate : 768 kb/s
    Width : 854 pixels
    Height : 480 pixels
    Display aspect ratio : 16:9
    Frame rate mode : Constant
    Frame rate : 23.976 (23976/1000) FPS
    Color space : YUV
    Chroma subsampling : 4:2:0
    Bit depth : 8 bits
    Scan type : Progressive
    Bits/(Pixel*Frame) : 0.078
    Stream size : 591 MiB (94%)
    Writing library : x264

    Audio
    ID : 2
    Format : AAC
    Format/Info : Advanced Audio Codec
    Format profile : LC
    Codec ID : mp4a-40-2
    Duration : 1 h 47 min
    Bit rate mode : Constant
    Bit rate : 44.0 kb/s
    Channel(s) : 2 channels
    Channel positions : Front: L R
    Sampling rate : 48.0 kHz
    Frame rate : 46.875 FPS (1024 SPF)
    Compression mode : Lossy
    Stream size : 33.7 MiB (5%)
    Default : Yes
    Alternate group : 1


    Kód:
    http://www.xdisk.cz/cs/download.php?id=D473B3831


    Kód:
    https://mega.nz/#!WcVCXIpK!FTx68Hc-AOy11Sjx_pXHfalCDnI7ZU8xKDyh69G3T9I


    Kód:
    https://data.hu/get/11454956/Swingers_Orgies_12.001
    https://data.hu/get/11454954/Swingers_Orgies_12.002
    https://data.hu/get/11454955/Swingers_Orgies_12.003
    https://data.hu/get/11454953/Swingers_Orgies_12.004
    https://data.hu/get/11454952/Swingers_Orgies_12.crc


    Kód:
    https://data.hu/get/11454957/Swingers_Orgies_12.zip


    Kód:
    https://datoporn.co/drsssfdspmwn

  13. #13
    Status
    Offline
    lion46 logója
    Adminisztrátor
    Csatlakozott
    15-07-17
    Életkor
    52
    Összes hozzászólás
    2.676
    Thanks : 0
    Thanked 0 Times in 0 Posts
    Hírnév szint
    10

    Swingers Orgies 13 (2018)

    Swingers Orgies 13 (2018) XXX.DVDRip



    Tags: Alexis Crystal, Angie Moon, Anna Rose, Barbara Bieber, K.K., Nathaly Heaven, Nicole Love, Silvia Dellai, Tera Link, Victoria Pure

    General
    Complete name : Swingers Orgies 13.mp4
    Format : MPEG-4
    Format profile : Base Media
    Codec ID : isom (isom/iso2/avc1/mp41)
    File size : 829 MiB
    Duration : 1 h 45 min
    Overall bit rate : 1 103 kb/s
    Movie name : RARBG - DogHouseDigital.Swingers.Orgies.13.XXX.SD.MP4-KLEENEX
    Writing application : Lavf57.83.100
    Comment : RARBG - DogHouseDigital.Swingers.Orgies.13.XXX.SD.MP4-KLEENEX

    Video
    ID : 1
    Format : AVC
    Format/Info : Advanced Video Codec
    Format profile : Main@L3.1
    Format settings : CABAC / 1 Ref Frames
    Format settings, CABAC : Yes
    Format settings, ReFrames : 1 frame
    Codec ID : avc1
    Codec ID/Info : Advanced Video Coding
    Duration : 1 h 45 min
    Bit rate : 1 002 kb/s
    Width : 960 pixels
    Height : 540 pixels
    Display aspect ratio : 16:9
    Frame rate mode : Constant
    Frame rate : 23.976 (23976/1000) FPS
    Original frame rate : 23.976 (24000/1001) FPS
    Color space : YUV
    Chroma subsampling : 4:2:0
    Bit depth : 8 bits
    Scan type : Progressive
    Bits/(Pixel*Frame) : 0.081
    Stream size : 753 MiB (91%)

    Audio
    ID : 2
    Format : AAC
    Format/Info : Advanced Audio Codec
    Format profile : LC
    Codec ID : mp4a-40-2
    Duration : 1 h 45 min
    Bit rate mode : Constant
    Bit rate : 96.0 kb/s
    Channel(s) : 2 channels
    Channel positions : Front: L R
    Sampling rate : 44.1 kHz
    Frame rate : 43.066 FPS (1024 SPF)
    Compression mode : Lossy
    Stream size : 72.1 MiB (9%)
    Default : Yes
    Alternate group : 1


    Kód:
    http://www.xdisk.cz/cs/download.php?id=67918B401


    Kód:
    https://mega.nz/#!KB8ESQZL!05bgUDJhdI7KWJmBedq1FhFX_0uryKRhf75KUMJC6pc


    Kód:
    https://data.hu/get/11454983/Swingers_Orgies_13.001
    https://data.hu/get/11454989/Swingers_Orgies_13.002
    https://data.hu/get/11454987/Swingers_Orgies_13.003
    https://data.hu/get/11454986/Swingers_Orgies_13.004
    https://data.hu/get/11454988/Swingers_Orgies_13.005
    https://data.hu/get/11454985/Swingers_Orgies_13.crc


    Kód:
    https://data.hu/get/11454984/Swingers_Orgies_13.zip


    Kód:
    https://datoporn.co/6negg8erc5d5

Hasonló témák

  1. XXX Filmek Bogyó, te hülye vagy...? (Masztiból testvérszex) 1-2 rész
    lion46 a fórumba XXX Történetek, Képek, borítók
    Válaszok: 1
    Utolsó hozzászólás: 2018-10-02, 04:28
  2. Pure MILF 01-13 (2012-2015)
    lion46 a fórumba XXX Milf
    Válaszok: 12
    Utolsó hozzászólás: 2016-11-29, 07:35
  3. Sihell Ferry& Henna Nagyivánban 1.rész
    lion46 a fórumba Sihell Ferry & Henna
    Válaszok: 0
    Utolsó hozzászólás: 2016-11-12, 17:46
  4. Oh So Sweet Lesbian Orgies 2014
    lion46 a fórumba XXX Lesbian Filmek
    Válaszok: 0
    Utolsó hozzászólás: 2015-10-07, 12:31
  5. Akciók Sándor Mátyás 1-6 rész
    lion46 a fórumba Sorozatok
    Válaszok: 0
    Utolsó hozzászólás: 2015-05-16, 09:28

Hozzászólás szabályai

  • Új témákat hozhat létre
  • Válaszokat küldhet
  • Fájlokat csatolhat
  • A hozzászólásaidat módosíthatod
  •  
  • BB code is bekapcsolva
  • Pofik bekapcsolva
  • Az [IMG] kód bekapcsolva
  • [VIDEO] code is bekapcsolva
  • A HTML kód bekapcsolva