Prinzzess A Decade Of Desire (2018) XXX.DVDRip



Starring: Abigail Mac, Jessa Rhodes, Carter Cruise, Zoey Monroe, India Summer

General
Complete name : Prinzzess A Decade Of Desire.mp4
Format : MPEG-4
Format profile : Base Media
Codec ID : isom (isom/iso2/avc1/mp41)
File size : 1.19 GiB
Duration : 3 h 49 min
Overall bit rate : 744 kb/s
Movie name : Prinzzess - A Decade Of Desire
ContentType : Movie
Description : God Damn You , copypaster HosmY aka: Axion,Viprosal ,Toys,BiggieSmall,Lilac,ananonima,zafir,phantum,sm echerw and others bastards
Writing application : Lavf57.83.100
LongDescription : God Damn You , copypaster HosmY aka: Axion,Viprosal ,Toys,BiggieSmall,Lilac,ananonima,zafir,phantum,sm echerw and others bastards

Video
ID : 1
Format : AVC
Format/Info : Advanced Video Codec
Format profile : High@L3.1
Format settings : CABAC / 5 Ref Frames
Format settings, CABAC : Yes
Format settings, ReFrames : 5 frames
Codec ID : avc1
Codec ID/Info : Advanced Video Coding
Duration : 3 h 49 min
Bit rate : 640 kb/s
Width : 720 pixels
Height : 406 pixels
Display aspect ratio : 16:9
Frame rate mode : Constant
Frame rate : 30.000 FPS
Color space : YUV
Chroma subsampling : 4:2:0
Bit depth : 8 bits
Scan type : Progressive
Bits/(Pixel*Frame) : 0.073
Stream size : 1.03 GiB (86%)
Writing library : x264
Language : English
Codec configuration box : avcC

Audio
ID : 2
Format : AAC LC
Format/Info : Advanced Audio Codec Low Complexity
Codec ID : mp4a-40-2
Duration : 3 h 49 min
Bit rate mode : Constant
Bit rate : 96.0 kb/s
Channel(s) : 2 channels
Channel layout : L R
Sampling rate : 44.1 kHz
Frame rate : 43.066 FPS (1024 SPF)
Compression mode : Lossy
Stream size : 157 MiB (13%)
Language : English
Default : Yes
Alternate group : 1


Kód:
http://www.xdisk.cz/cs/download.php?id=FF4FCBB91


Kód:
https://mega.nz/#!DQMlXIRD!2y8KDjOUlkGQa0mJHxAlTsGUaASuCPEOdEQeGoRxbs8


Kód:
https://data.hu/get/11570338/Prinzzess_A_Decade_Of_Desire.001
https://data.hu/get/11570344/Prinzzess_A_Decade_Of_Desire.002
https://data.hu/get/11570342/Prinzzess_A_Decade_Of_Desire.003
https://data.hu/get/11570340/Prinzzess_A_Decade_Of_Desire.004
https://data.hu/get/11570341/Prinzzess_A_Decade_Of_Desire.005
https://data.hu/get/11570345/Prinzzess_A_Decade_Of_Desire.006
https://data.hu/get/11570343/Prinzzess_A_Decade_Of_Desire.007
https://data.hu/get/11570339/Prinzzess_A_Decade_Of_Desire.crc


Kód:
https://data.hu/get/11570513/Prinzzess_A_Decade_Of_Desire.zip


Kód:
https://datoporn.co/62p73cimpfyu