Lányok Lányok.2.XXX.VHSRIP.XVID.HUNDUB-PORNOLOVERBLOG







General
Complete name : Lanyok.Lanyok.2.XXX.VHSRIP.XVID.HUNDUB-PORNOLOVERBLOG.mp4
Format : MPEG-4
Format profile : Base Media / Version 2
Codec ID : mp42 (mp42/isom)
File size : 835 MiB
Duration : 1 h 32 min
Overall bit rate mode : Variable
Overall bit rate : 1 265 kb/s
Encoded date : UTC 2018-06-05 08:50:51
Tagged date : UTC 2018-06-05 08:51:06
Writing application : mp4creator 1.6.1d

Video
ID : 1
Format : AVC
Format/Info : Advanced Video Codec
Format profile : High@L3
Format settings : 1 Ref Frames
Format settings, CABAC : No
Format settings, ReFrames : 1 frame
Codec ID : avc1
Codec ID/Info : Advanced Video Coding
Duration : 1 h 32 min
Bit rate : 1 138 kb/s
Width : 720 pixels
Height : 576 pixels
Display aspect ratio : 1.724
Frame rate mode : Constant
Frame rate : 25.000 FPS
Standard : PAL
Color space : YUV
Chroma subsampling : 4:2:0
Bit depth : 8 bits
Scan type : Progressive
Bits/(Pixel*Frame) : 0.110
Stream size : 751 MiB (90%)
Language : English
Encoded date : UTC 2018-06-05 08:50:51
Tagged date : UTC 2018-06-05 08:51:04
Codec configuration box : avcC

Audio
ID : 2
Format : AAC LC
Format/Info : Advanced Audio Codec Low Complexity
Codec ID : mp4a-40-2
Duration : 1 h 32 min
Source duration : 1 h 32 min
Bit rate mode : Variable
Bit rate : 126 kb/s
Maximum bit rate : 149 kb/s
Channel(s) : 2 channels
Channel layout : L R
Sampling rate : 44.1 kHz
Frame rate : 43.066 FPS (1024 SPF)
Compression mode : Lossy
Stream size : 82.8 MiB (10%)
Source stream size : 82.9 MiB (10%)
Language : English
Encoded date : UTC 2018-06-05 08:51:05
Tagged date : UTC 2018-06-05 08:51:06



Kód:
http://www.xdisk.cz/cs/download.php?id=60A33C231


Kód:
https://mega.nz/#!IyQBGYzZ!dWu_slJlznDWRJlU8pY_lziCZ6QQl9YgzWD0bAUvZ-Q


Kód:
https://data.hu/get/11782647/Lanyok.Lanyok.2.XXX.VHSRIP.XVID.HUNDUB-PORNOLOVERBLOG.001
https://data.hu/get/11782642/Lanyok.Lanyok.2.XXX.VHSRIP.XVID.HUNDUB-PORNOLOVERBLOG.002
https://data.hu/get/11782645/Lanyok.Lanyok.2.XXX.VHSRIP.XVID.HUNDUB-PORNOLOVERBLOG.003
https://data.hu/get/11782646/Lanyok.Lanyok.2.XXX.VHSRIP.XVID.HUNDUB-PORNOLOVERBLOG.004
https://data.hu/get/11782631/Lanyok.Lanyok.2.XXX.VHSRIP.XVID.HUNDUB-PORNOLOVERBLOG.005
https://data.hu/get/11782630/Lanyok.Lanyok.2.XXX.VHSRIP.XVID.HUNDUB-PORNOLOVERBLOG.crc


Kód:
https://data.hu/get/11782652/Lanyok.Lanyok.2.XXX.VHSRIP.XVID.HUNDUB-PORNOLOVERBLOG.mp4.zip


Kód:
https://datoporn.co/9ca2d7dlyokg