Eredmény: 1 - 3 (3) összesen

Téma: Filthy Family (2019) 1-3

Téma Leírása (Opcionális): XXX.DVDRip
  1. #1
    Status
    Offline
    lion46 logója
    Adminisztrátor
    Csatlakozott
    15-07-17
    Életkor
    53
    Összes hozzászólás
    1.721
    Thanks : 0
    Thanked 0 Times in 0 Posts
    Hírnév szint
    10

    Filthy Family (2019) 1-3

    Filthy Family (2019) XXX.DVDRip



    Pornstars: Alexis Fawx, Anastasia Knight, Chloe Couture, Isabella Nice, Khloe Capri

    General
    Complete name : Filthy Family.MP4.mp4
    Format : MPEG-4
    Format profile : Base Media
    Codec ID : isom (isom/iso2/avc1/mp41)
    File size : 786 MiB
    Duration : 2 h 13 min
    Overall bit rate : 821 kb/s
    Writing application : Lavf57.83.100

    Video
    ID : 1
    Format : AVC
    Format/Info : Advanced Video Codec
    Format profile : High@L3.1
    Format settings : CABAC / 5 Ref Frames
    Format settings, CABAC : Yes
    Format settings, Reference : 5 frames
    Codec ID : avc1
    Codec ID/Info : Advanced Video Coding
    Duration : 2 h 13 min
    Bit rate : 768 kb/s
    Width : 852 pixels
    Height : 480 pixels
    Display aspect ratio : 16:9
    Frame rate mode : Constant
    Frame rate : 29.970 (30000/1001) FPS
    Color space : YUV
    Chroma subsampling : 4:2:0
    Bit depth : 8 bits
    Scan type : Progressive
    Bits/(Pixel*Frame) : 0.063
    Stream size : 737 MiB (94%)
    Writing library : x264 core
    Codec configuration box : avcC

    Audio
    ID : 2
    Format : AAC LC
    Format/Info : Advanced Audio Codec Low Complexity
    Codec ID : mp4a-40-2
    Duration : 2 h 13 min
    Bit rate mode : Constant
    Bit rate : 48.0 kb/s
    Channel(s) : 2 channels
    Channel layout : L R
    Sampling rate : 32.0 kHz
    Frame rate : 31.250 FPS (1024 SPF)
    Compression mode : Lossy
    Stream size : 44.3 MiB (6%)
    Default : Yes
    Alternate group : 1


    Kód:
    http://www.xdisk.cz/cs/download.php?id=E0E3F8B31


    Kód:
    https://mega.nz/#!8bZE3QjC!4KEEfu0THqleXjbSXpXoxTrvmZCYSu8qKSurcecQnAY


    Kód:
    https://data.hu/get/11986796/Filthy_Family.MP4.001
    https://data.hu/get/11986795/Filthy_Family.MP4.002
    https://data.hu/get/11986792/Filthy_Family.MP4.003
    https://data.hu/get/11986794/Filthy_Family.MP4.004
    https://data.hu/get/11986790/Filthy_Family.MP4.crc


    Kód:
    https://data.hu/get/11986807/Filthy_Family.MP4.mp4.zip


    Kód:
    https://datoporn.co/zr7z7v6f9y42

  2. #2
    Status
    Offline
    lion46 logója
    Adminisztrátor
    Csatlakozott
    15-07-17
    Életkor
    53
    Összes hozzászólás
    1.721
    Thanks : 0
    Thanked 0 Times in 0 Posts
    Hírnév szint
    10
    Filthy Family 2 (2019) XXX.DVDRip



    Pornstars: Cherie Deville, Chloe Cherry, Harmony, Janna Hicks, Jenna Foxx, Lexi Luna, Misty Stone, Rharri Rhound

    General
    Complete name : Filthy Family 2.mp4
    Format : MPEG-4
    Format profile : Base Media
    Codec ID : isom (isom/iso2/avc1/mp41)
    File size : 1.33 GiB
    Duration : 2 h 44 min
    Overall bit rate : 1 156 kb/s
    Writing application : Lavf57.66.104

    Video
    ID : 1
    Format : AVC
    Format/Info : Advanced Video Codec
    Format profile : High@L3.1
    Format settings : CABAC / 4 Ref Frames
    Format settings, CABAC : Yes
    Format settings, Reference : 4 frames
    Codec ID : avc1
    Codec ID/Info : Advanced Video Coding
    Duration : 2 h 44 min
    Bit rate : 1 024 kb/s
    Width : 854 pixels
    Height : 480 pixels
    Display aspect ratio : 16:9
    Frame rate mode : Variable
    Frame rate : 29.970 (29970/1000) FPS
    Minimum frame rate : 10.020 FPS
    Maximum frame rate : 10 000.000 FPS
    Color space : YUV
    Chroma subsampling : 4:2:0
    Bit depth : 8 bits
    Scan type : Progressive
    Bits/(Pixel*Frame) : 0.083
    Stream size : 1.18 GiB (89%)
    Writing library : x264 core

    Audio
    ID : 2
    Format : AAC LC
    Format/Info : Advanced Audio Codec Low Complexity
    Codec ID : mp4a-40-2
    Duration : 2 h 44 min
    Duration_LastFrame : 32 ms
    Bit rate mode : Constant
    Bit rate : 123 kb/s
    Channel(s) : 2 channels
    Channel layout : L R
    Sampling rate : 32.0 kHz
    Frame rate : 31.250 FPS (1024 SPF)
    Compression mode : Lossy
    Stream size : 145 MiB (11%)
    Default : Yes
    Alternate group : 1


    Kód:
    http://www.xdisk.cz/cs/download.php?id=2FF3C8591


    Kód:
    https://mega.nz/#!cfQi0SYa!5ie11RltPcwDlFf2ez-iwNre3qwKjqr8ahrYOt8vTaU


    Kód:
    https://data.hu/get/11986901/Filthy_Family_2.001
    https://data.hu/get/11986900/Filthy_Family_2.002
    https://data.hu/get/11986818/Filthy_Family_2.003
    https://data.hu/get/11986820/Filthy_Family_2.004
    https://data.hu/get/11986819/Filthy_Family_2.005
    https://data.hu/get/11986821/Filthy_Family_2.006
    https://data.hu/get/11986817/Filthy_Family_2.007
    https://data.hu/get/11986815/Filthy_Family_2.crc


    Kód:
    https://data.hu/get/11986916/Filthy_Family_2.zip


    Kód:
    https://datoporn.co/xj9kzcn22qm1

  3. #3
    Status
    Offline
    lion46 logója
    Adminisztrátor
    Csatlakozott
    15-07-17
    Életkor
    53
    Összes hozzászólás
    1.721
    Thanks : 0
    Thanked 0 Times in 0 Posts
    Hírnév szint
    10
    Filthy Family 3 XXX.DVDRip


    Brooklyn Chase / Gianna Gem / Kali Roses / Katie Morgan / Monique Alexander / Rachael Cavalli

    General
    Complete name : Filthy Family 3.mp4
    Format : MPEG-4
    Format profile : Base Media
    Codec ID : isom (isom/iso2/avc1/mp41)
    File size : 1.68 GiB
    Duration : 2 h 34 min
    Overall bit rate : 1 554 kb/s
    Writing application : Lavf57.83.100

    Video
    ID : 1
    Format : AVC
    Format/Info : Advanced Video Codec
    Format profile : Main@L3.1
    Format settings : CABAC / 4 Ref Frames
    Format settings, CABAC : Yes
    Format settings, Reference fra : 4 frames
    Format settings, GOP : M=4, N=29
    Codec ID : avc1
    Codec ID/Info : Advanced Video Coding
    Duration : 2 h 34 min
    Bit rate : 1 503 kb/s
    Width : 852 pixels
    Height : 480 pixels
    Display aspect ratio : 16:9
    Frame rate mode : Variable
    Frame rate : 29.970 (29970/1000) FPS
    Minimum frame rate : 6.012 FPS
    Maximum frame rate : 60.000 FPS
    Original frame rate : 29.970 (30000/1001) FPS
    Standard : NTSC
    Color space : YUV
    Chroma subsampling : 4:2:0
    Bit depth : 8 bits
    Scan type : Progressive
    Bits/(Pixel*Frame) : 0.123
    Stream size : 1.63 GiB (97%)
    Color range : Limited
    Color primaries : BT.601 NTSC
    Transfer characteristics : BT.601
    Matrix coefficients : BT.601
    Codec configuration box : avcC

    Audio
    ID : 2
    Format : AAC LC
    Format/Info : Advanced Audio Codec Low Complexity
    Codec ID : mp4a-40-2
    Duration : 2 h 34 min
    Duration_LastFrame : -25 ms
    Bit rate mode : Constant
    Bit rate : 48.0 kb/s
    Channel(s) : 2 channels
    Channel layout : L R
    Sampling rate : 32.0 kHz
    Frame rate : 31.250 FPS (1024 SPF)
    Compression mode : Lossy
    Stream size : 51.2 MiB (3%)
    Default : Yes
    Alternate group : 1


    Kód:
    http://www.xdisk.cz/cs/download.php?id=5D5258DD1


    Kód:
    https://mega.nz/#!IHBD2YoT!DP7ArOPupSUUEUQV0arABAM38JHG23CNcldKXqOZN0I


    Kód:
    https://data.hu/get/12062079/Filthy_Family_3.001
    https://data.hu/get/12062078/Filthy_Family_3.002
    https://data.hu/get/12062076/Filthy_Family_3.003
    https://data.hu/get/12062077/Filthy_Family_3.004
    https://data.hu/get/12062075/Filthy_Family_3.005
    https://data.hu/get/12062072/Filthy_Family_3.006
    https://data.hu/get/12062073/Filthy_Family_3.007
    https://data.hu/get/12062074/Filthy_Family_3.008
    https://data.hu/get/12062071/Filthy_Family_3.009
    https://data.hu/get/12062070/Filthy_Family_3.crc


    Kód:
    https://data.hu/get/12062097/Filthy_Family_3.zip


    Kód:
    https://datoporn.co/dav0kd472naf

Hozzászólás szabályai

  • Új témákat hozhat létre
  • Válaszokat küldhet
  • Fájlokat csatolhat
  • A hozzászólásaidat módosíthatod
  •  
  • BB code is bekapcsolva
  • Pofik bekapcsolva
  • Az [IMG] kód bekapcsolva
  • [VIDEO] code is bekapcsolva
  • A HTML kód bekapcsolva