Moms Teach Sex 20 (2019) XXX.DVDRip



Cast: Alana Cruise, Britney Amber, Carolina Sweets, Edyn Blair, Katie Kush, Reagan Foxx
General
Complete name : Moms_Teach_Sex_20_(2019).mp4
Format : MPEG-4
Format profile : Base Media
Codec ID : isom (isom/iso2/avc1/mp41)
File size : 709 MiB
Duration : 1 h 50 min
Overall bit rate mode : Variable
Overall bit rate : 898 kb/s
Writing application : Lavf58.0.100

Video
ID : 1
Format : AVC
Format/Info : Advanced Video Codec
Format profile : High@L3.1
Format settings : CABAC / 4 Ref Frames
Format settings, CABAC : Yes
Format settings, Reference : 4 frames
Codec ID : avc1
Codec ID/Info : Advanced Video Coding
Duration : 1 h 32 min
Bit rate : 911 kb/s
Width : 960 pixels
Height : 540 pixels
Display aspect ratio : 16:9
Frame rate mode : Constant
Frame rate : 29.970 (30000/1001) FPS
Color space : YUV
Chroma subsampling : 4:2:0
Bit depth : 8 bits
Scan type : Progressive
Bits/(Pixel*Frame) : 0.059
Stream size : 603 MiB (85%)
Writing library : x264 core
Codec configuration box : avcC

Audio
ID : 2
Format : AAC LC
Format/Info : Advanced Audio Codec Low Complexity
Codec ID : mp4a-40-2
Duration : 1 h 50 min
Bit rate mode : Variable
Bit rate : 128 kb/s
Channel(s) : 2 channels
Channel layout : L R
Sampling rate : 44.1 kHz
Frame rate : 43.066 FPS (1024 SPF)
Compression mode : Lossy
Stream size : 100 MiB (14%)
Default : Yes
Alternate group : 1


Kód:
http://www.xdisk.cz/cs/download.php?id=6F9F93FA1


Kód:
https://mega.nz/#!1OJSQKLJ!DB3GYlu3GaV_E9nU54HoO_g8xYceFq2ImJCXW61irYI


Kód:
https://data.hu/get/12000934/Moms_Teach_Sex_20_2019.001
https://data.hu/get/12000932/Moms_Teach_Sex_20_2019.002
https://data.hu/get/12000933/Moms_Teach_Sex_20_2019.003
https://data.hu/get/12000931/Moms_Teach_Sex_20_2019.004
https://data.hu/get/12000928/Moms_Teach_Sex_20_2019.crc


Kód:
https://data.hu/get/12000935/Moms_Teach_Sex_20_2019.zip


Kód:
https://datoporn.co/s1n1u7xd5gdb