Everybody Needs Milf XXX.DVDRip


Starring: India Summer, Tommy Gunn, Sienna West, Alana Evans, Darryl Hanah, Raquel Devine, Dane Cross, Nick Manning, Mike Butders
Director: Cash Markman

General
Complete name : Everybody Needs Milf.mp4
Format : MPEG-4
Format profile : Base Media
Codec ID : isom (isom)
File size : 286 MiB
Duration : 1 h 31 min
Overall bit rate mode : Variable
Overall bit rate : 438 kb/s
Encoded date : UTC 2019-05-07 18:11:32
Tagged date : UTC 2019-05-07 18:11:32

Video
ID : 1
Format : AVC
Format/Info : Advanced Video Codec
Format profile : Main@L3
Format settings : CABAC / 1 Ref Frames
Format settings, CABAC : Yes
Format settings, Reference fra : 1 frame
Format settings, GOP : M=1, N=60
Codec ID : avc1
Codec ID/Info : Advanced Video Coding
Duration : 1 h 31 min
Source duration : 1 h 31 min
Bit rate : 370 kb/s
Maximum bit rate : 825 kb/s
Width : 640 pixels
Height : 360 pixels
Display aspect ratio : 16:9
Original display aspect ratio : 16:9
Frame rate mode : Variable
Frame rate : 29.970 (29970/1000) FPS
Minimum frame rate : 29.960 FPS
Maximum frame rate : 29.970 FPS
Color space : YUV
Chroma subsampling : 4:2:0
Bit depth : 8 bits
Scan type : Progressive
Bits/(Pixel*Frame) : 0.054
Stream size : 242 MiB (85%)
Source stream size : 242 MiB (85%)
Writing library : x264
Tagged date : UTC 2019-05-07 18:11:59
Codec configuration box : avcC

Audio
ID : 2
Format : AAC LC
Format/Info : Advanced Audio Codec Low Complexity
Codec ID : mp4a-40-2
Duration : 1 h 31 min
Bit rate mode : Variable
Bit rate : 63.8 kb/s
Maximum bit rate : 72.9 kb/s
Channel(s) : 2 channels
Channel layout : L R
Sampling rate : 44.1 kHz
Frame rate : 43.066 FPS (1024 SPF)
Compression mode : Lossy
Stream size : 41.7 MiB (15%)
Default : Yes
Alternate group : 1
Tagged date : UTC 2019-05-07 18:11:59


Kód:
http://www.xdisk.cz/cs/download.php?id=B32C5F631


Kód:
https://mega.nz/#!gXhxnKAA!gw3dLFr-Cgi9XBJ7QAHHEMgVXJHRz9EBL-DoVUn0EFc


Kód:
https://data.hu/get/12067099/Everybody_Needs_Milf.001
https://data.hu/get/12067097/Everybody_Needs_Milf.002
https://data.hu/get/12067094/Everybody_Needs_Milf.003
https://data.hu/get/12067096/Everybody_Needs_Milf.004
https://data.hu/get/12067095/Everybody_Needs_Milf.005
https://data.hu/get/12067093/Everybody_Needs_Milf.006
https://data.hu/get/12067090/Everybody_Needs_Milf.crc


Kód:
https://data.hu/get/12067120/Everybody_Needs_Milf.zip


Kód:
https://datoporn.co/gtf41gc37z22