Older Women Younger Men 9 XXXX.DVDRip


Starring: James Deen, Amber Lynn, Erica Lauren, Scott Lyons, Brooke Hunter, Wanda Lust, Trent Soluri, Trent Tesoro, Julie Mandrews

General
Complete name : Older Women Younger Men 9.mp4
Format : MPEG-4
Format profile : Base Media
Codec ID : isom (isom/iso2/avc1/mp41)
File size : 312 MiB
Duration : 1 h 38 min
Overall bit rate : 443 kb/s
Writing application : Lavf58.26.101

Video
ID : 1
Format : AVC
Format/Info : Advanced Video Codec
Format profile : High@L3
Format settings : CABAC / 5 Ref Frames
Format settings, CABAC : Yes
Format settings, Reference : 5 frames
Codec ID : avc1
Codec ID/Info : Advanced Video Coding
Duration : 1 h 38 min
Bit rate : 311 kb/s
Width : 640 pixels
Height : 480 pixels
Display aspect ratio : 4:3
Frame rate mode : Constant
Frame rate : 25.000 FPS
Color space : YUV
Chroma subsampling : 4:2:0
Bit depth : 8 bits
Scan type : Progressive
Bits/(Pixel*Frame) : 0.040
Stream size : 219 MiB (70%)
Writing library : x264
Codec configuration box : avcC

Audio
ID : 2
Format : AAC LC
Format/Info : Advanced Audio Codec Low Complexity
Codec ID : mp4a-40-2
Duration : 1 h 38 min
Bit rate mode : Constant
Bit rate : 126 kb/s
Channel(s) : 2 channels
Channel layout : L R
Sampling rate : 32.0 kHz
Frame rate : 31.250 FPS (1024 SPF)
Compression mode : Lossy
Stream size : 89.0 MiB (29%)
Default : Yes
Alternate group : 1


Kód:
http://www.xdisk.cz/cs/download.php?id=0E0DF2731


Kód:
https://mega.nz/#!tPYwyACb!QUcaepDu5P-sVjz4e1L0DldoMFohRwSl5b15mRQLKuU


Kód:
https://data.hu/get/12077509/Older_Women_Younger_Men_9.001
https://data.hu/get/12077508/Older_Women_Younger_Men_9.002
https://data.hu/get/12077507/Older_Women_Younger_Men_9.003
https://data.hu/get/12077506/Older_Women_Younger_Men_9.004
https://data.hu/get/12077505/Older_Women_Younger_Men_9.crc


Kód:
https://data.hu/get/12077517/Older_Women_Younger_Men_9.zip


Kód:
https://datoporn.co/i8s3kcc0wh4b