Drilling Mommy 11 XXX.DVDRip




Starring:

General
Complete name : Drilling Mommy 11.mp4
Format : MPEG-4
Format profile : Base Media
Codec ID : isom (isom/iso2/avc1/mp41)
File size : 1.85 GiB
Duration : 2 h 55 min
Overall bit rate : 1 512 kb/s
Writing application : Lavf56.40.101

Video
ID : 1
Format : AVC
Format/Info : Advanced Video Codec
Format profile : High@L3.1
Format settings : CABAC / 5 Ref Frames
Format settings, CABAC : Yes
Format settings, Reference : 5 frames
Codec ID : avc1
Codec ID/Info : Advanced Video Coding
Duration : 2 h 55 min
Bit rate : 1 362 kb/s
Width : 854 pixels
Height : 480 pixels
Display aspect ratio : 16:9
Original display aspect rat : 16:9
Frame rate mode : Variable
Frame rate : 23.976 (23976/1000) FPS
Minimum frame rate : 8.016 FPS
Maximum frame rate : 8 000.000 FPS
Color space : YUV
Chroma subsampling : 4:2:0
Bit depth : 8 bits
Scan type : Progressive
Bits/(Pixel*Frame) : 0.139
Stream size : 1.66 GiB (90%)
Writing library :
Codec configuration box : avcC

Audio
ID : 2
Format : AAC LC
Format/Info : Advanced Audio Codec Low Complexity
Codec ID : mp4a-40-2
Duration : 2 h 55 min
Duration_LastFrame : 22 ms
Bit rate mode : Constant
Bit rate : 144 kb/s
Channel(s) : 2 channels
Channel layout : L R
Sampling rate : 48.0 kHz
Frame rate : 46.875 FPS (1024 SPF)
Compression mode : Lossy
Stream size : 181 MiB (10%)
Default : Yes
Alternate group : 1



Kód:
http://www.xdisk.cz/cs/download.php?id=8B2FF23E1

Kód:
https://data.hu/get/12343629/Drilling_Mommy_11.001
https://data.hu/get/12343630/Drilling_Mommy_11.002
https://data.hu/get/12343626/Drilling_Mommy_11.003
https://data.hu/get/12343627/Drilling_Mommy_11.004
https://data.hu/get/12343625/Drilling_Mommy_11.005
https://data.hu/get/12343620/Drilling_Mommy_11.006
https://data.hu/get/12343622/Drilling_Mommy_11.007
https://data.hu/get/12343623/Drilling_Mommy_11.008
https://data.hu/get/12343619/Drilling_Mommy_11.009
https://data.hu/get/12343617/Drilling_Mommy_11.010
https://data.hu/get/12343614/Drilling_Mommy_11.crc

Kód:
https://data.hu/get/12343732/Drilling_Mommy_11.zip