Eredmény: 1 - 12 (12) összesen
  1. #1
    Status
    Offline
    lion46 logója
    Adminisztrátor
    Csatlakozott
    15-07-17
    Életkor
    54
    Összes hozzászólás
    2.355
    Hírnév szint
    10

    Czech Wife Swap 01-12

    Czech Wife Swap 01 XXX.DVDRip







    General
    Complete name : Czech Wife Swap 1.mp4
    Format : MPEG-4
    Format profile : Base Media
    Codec ID : isom (isom/iso2/avc1/mp41)
    File size : 1.10 GiB
    Duration : 1 h 36 min
    Overall bit rate : 1 638 kb/s
    Writing application : Lavf56.15.102

    Video
    ID : 1
    Format : AVC
    Format/Info : Advanced Video Codec
    Format profile : Baseline@L3
    Format settings : 2 Ref Frames
    Format settings, CABAC : No
    Format settings, Reference : 2 frames
    Codec ID : avc1
    Codec ID/Info : Advanced Video Coding
    Duration : 1 h 36 min
    Bit rate : 1 537 kb/s
    Width : 854 pixels
    Height : 480 pixels
    Display aspect ratio : 16:9
    Frame rate mode : Constant
    Frame rate : 25.000 FPS
    Color space : YUV
    Chroma subsampling : 4:2:0
    Bit depth : 8 bits
    Scan type : Progressive
    Bits/(Pixel*Frame) : 0.150
    Stream size : 1.03 GiB (94%)
    Writing library : x264 core 142

    Codec configuration box : avcC

    Audio
    ID : 2
    Format : AAC LC
    Format/Info : Advanced Audio Codec Low Complexity
    Codec ID : mp4a-40-2
    Duration : 1 h 36 min
    Bit rate mode : Constant
    Bit rate : 96.0 kb/s
    Channel(s) : 2 channels
    Channel layout : L R
    Sampling rate : 44.1 kHz
    Frame rate : 43.066 FPS (1024 SPF)
    Compression mode : Lossy
    Stream size : 66.0 MiB (6%)
    Default : Yes
    Alternate group : 1



    Kód:
    http://www.xdisk.cz/cs/download.php?id=997B04C01

    Kód:
    https://mega.nz/#!KElxXSZJ!U7JyQLgJI_ckYE-bVVawrWSrzhTK4g5DJE0qoVOP4Ks

    Kód:
    https://data.hu/get/12348785/Czech_Wife_Swap_1.001
    https://data.hu/get/12348782/Czech_Wife_Swap_1.002
    https://data.hu/get/12348783/Czech_Wife_Swap_1.003
    https://data.hu/get/12348784/Czech_Wife_Swap_1.004
    https://data.hu/get/12348780/Czech_Wife_Swap_1.005
    https://data.hu/get/12348781/Czech_Wife_Swap_1.006
    https://data.hu/get/12348779/Czech_Wife_Swap_1.crc


    Kód:
    https://data.hu/get/12348789/Czech_Wife_Swap_1.zip

  2. #2
    Status
    Offline
    lion46 logója
    Adminisztrátor
    Csatlakozott
    15-07-17
    Életkor
    54
    Összes hozzászólás
    2.355
    Hírnév szint
    10
    Czech Wife Swap 02 XXX.DVDRip



    General
    Complete name : Czech Wife Swap 2.mp4
    Format : MPEG-4
    Format profile : Base Media
    Codec ID : isom (isom/iso2/mp41)
    File size : 2.75 GiB
    Duration : 2 h 55 min
    Overall bit rate mode : Variable
    Overall bit rate : 2 235 kb/s
    Writing application : Lavf56.15.102

    Video
    ID : 1
    Format : MPEG-4 Visual
    Format profile : Simple@L1
    Format settings, BVOP : No
    Format settings, QPel : No
    Format settings, GMC : No warppoints
    Format settings, Matrix : Default (H.263)
    Codec ID : mp4v-20
    Duration : 2 h 55 min
    Bit rate mode : Variable
    Bit rate : 2 134 kb/s
    Maximum bit rate : 2 306 kb/s
    Width : 854 pixels
    Height : 480 pixels
    Display aspect ratio : 16:9
    Frame rate mode : Constant
    Frame rate : 25.000 FPS
    Color space : YUV
    Chroma subsampling : 4:2:0
    Bit depth : 8 bits
    Scan type : Progressive
    Compression mode : Lossy
    Bits/(Pixel*Frame) : 0.208
    Stream size : 2.62 GiB (95%)
    Writing library : Lavc56.13.100

    Audio
    ID : 2
    Format : AAC LC
    Format/Info : Advanced Audio Codec Low Complexity
    Codec ID : mp4a-40-2
    Duration : 2 h 55 min
    Bit rate mode : Constant
    Bit rate : 96.0 kb/s
    Channel(s) : 2 channels
    Channel layout : L R
    Sampling rate : 44.1 kHz
    Frame rate : 43.066 FPS (1024 SPF)
    Compression mode : Lossy
    Stream size : 121 MiB (4%)
    Default : Yes
    Alternate group : 1


    Kód:
    http://www.xdisk.cz/cs/download.php?id=F1D17DE61


    Kód:
    https://mega.nz/#!bMVEkK4D!vgTY7QjIqMcnxGSh0owKUEu8tF-OX0WlaoWlr2ZrRsw


    Kód:
    https://data.hu/get/12348929/Czech_Wife_Swap_2.001
    https://data.hu/get/12348925/Czech_Wife_Swap_2.002
    https://data.hu/get/12348926/Czech_Wife_Swap_2.003
    https://data.hu/get/12348927/Czech_Wife_Swap_2.crc

  3. #3
    Status
    Offline
    lion46 logója
    Adminisztrátor
    Csatlakozott
    15-07-17
    Életkor
    54
    Összes hozzászólás
    2.355
    Hírnév szint
    10
    Czech Wife Swap 3 XXX.DVDRip




    General
    Complete name : Czech Wife Swap 3.mp4
    Format : MPEG-4
    Format profile : Base Media
    Codec ID : isom (isom/iso2/mp41)
    File size : 1.38 GiB
    Duration : 1 h 22 min
    Overall bit rate mode : Constant
    Overall bit rate : 2 407 kb/s
    Writing application : Lavf56.15.102

    Video
    ID : 1
    Format : MPEG-4 Visual
    Format profile : Simple@L1
    Format settings, BVOP : No
    Format settings, QPel : No
    Format settings, GMC : No warppoints
    Format settings, Matrix : Default (H.263)
    Codec ID : mp4v-20
    Duration : 1 h 22 min
    Bit rate mode : Constant
    Bit rate : 2 306 kb/s
    Width : 854 pixels
    Height : 480 pixels
    Display aspect ratio : 16:9
    Frame rate mode : Constant
    Frame rate : 25.000 FPS
    Color space : YUV
    Chroma subsampling : 4:2:0
    Bit depth : 8 bits
    Scan type : Progressive
    Compression mode : Lossy
    Bits/(Pixel*Frame) : 0.225
    Stream size : 1.33 GiB (96%)
    Writing library : Lavc56.13.100

    Audio
    ID : 2
    Format : AAC LC
    Format/Info : Advanced Audio Codec Low Complexity
    Codec ID : mp4a-40-2
    Duration : 1 h 22 min
    Bit rate mode : Constant
    Bit rate : 96.0 kb/s
    Channel(s) : 2 channels
    Channel layout : L R
    Sampling rate : 44.1 kHz
    Frame rate : 43.066 FPS (1024 SPF)
    Compression mode : Lossy
    Stream size : 56.5 MiB (4%)
    Default : Yes
    Alternate group : 1


    Kód:
    http://www.xdisk.cz/cs/download.php?id=EDBF9FA71


    Kód:
    https://mega.nz/#!eNFGBaza!gwP8No-u7f0gQlbuka-cLx7TPrm2UOruQAcaqcyxbpA




    Kód:
    https://data.hu/get/12350399/Czech_Wife_Swap_3.zip

  4. #4
    Status
    Offline
    lion46 logója
    Adminisztrátor
    Csatlakozott
    15-07-17
    Életkor
    54
    Összes hozzászólás
    2.355
    Hírnév szint
    10
    Czech Wife Swap 4 XXX.DVDRip



    General
    Complete name : Czech Wife Swap 4.mp4
    Format : MPEG-4
    Format profile : Base Media
    Codec ID : isom (isom/iso2/mp41)
    File size : 2.15 GiB
    Duration : 2 h 8 min
    Overall bit rate mode : Constant
    Overall bit rate : 2 407 kb/s
    Writing application : Lavf56.15.102

    Video
    ID : 1
    Format : MPEG-4 Visual
    Format profile : Simple@L1
    Format settings, BVOP : No
    Format settings, QPel : No
    Format settings, GMC : No warppoints
    Format settings, Matrix : Default (H.263)
    Codec ID : mp4v-20
    Duration : 2 h 8 min
    Bit rate mode : Constant
    Bit rate : 2 306 kb/s
    Width : 854 pixels
    Height : 480 pixels
    Display aspect ratio : 16:9
    Frame rate mode : Constant
    Frame rate : 25.000 FPS
    Color space : YUV
    Chroma subsampling : 4:2:0
    Bit depth : 8 bits
    Scan type : Progressive
    Compression mode : Lossy
    Bits/(Pixel*Frame) : 0.225
    Stream size : 2.06 GiB (96%)
    Writing library : Lavc56.13.100

    Audio
    ID : 2
    Format : AAC LC
    Format/Info : Advanced Audio Codec Low Complexity
    Codec ID : mp4a-40-2
    Duration : 2 h 8 min
    Bit rate mode : Constant
    Bit rate : 96.0 kb/s
    Channel(s) : 2 channels
    Channel layout : L R
    Sampling rate : 44.1 kHz
    Frame rate : 43.066 FPS (1024 SPF)
    Compression mode : Lossy
    Stream size : 88.0 MiB (4%)
    Default : Yes
    Alternate group : 1


    Kód:
    http://www.xdisk.cz/cs/download.php?id=5D2504A21


    Kód:
    https://mega.nz/#!jBlnkS6b!Pjap9xshtmYLZB-hYwzqziTpufNOcASd0vKLkoiNE2o




    Kód:
    https://data.hu/get/12350701/Czech_Wife_Swap_4.001
    https://data.hu/get/12350700/Czech_Wife_Swap_4.002
    https://data.hu/get/12350699/Czech_Wife_Swap_4.003
    https://data.hu/get/12350698/Czech_Wife_Swap_4.crc

  5. #5
    Status
    Offline
    lion46 logója
    Adminisztrátor
    Csatlakozott
    15-07-17
    Életkor
    54
    Összes hozzászólás
    2.355
    Hírnév szint
    10
    Czech Wife Swap 5 XXX.DVDRip



    General
    Complete name : Czech Wife Swap 5.mp4
    Format : MPEG-4
    Format profile : Base Media
    Codec ID : isom (isom/iso2/mp41)
    File size : 2.22 GiB
    Duration : 2 h 12 min
    Overall bit rate mode : Constant
    Overall bit rate : 2 407 kb/s
    Writing application : Lavf56.15.102

    Video
    ID : 1
    Format : MPEG-4 Visual
    Format profile : Simple@L1
    Format settings, BVOP : No
    Format settings, QPel : No
    Format settings, GMC : No warppoints
    Format settings, Matrix : Default (H.263)
    Codec ID : mp4v-20
    Duration : 2 h 12 min
    Bit rate mode : Constant
    Bit rate : 2 306 kb/s
    Width : 854 pixels
    Height : 480 pixels
    Display aspect ratio : 16:9
    Frame rate mode : Constant
    Frame rate : 25.000 FPS
    Color space : YUV
    Chroma subsampling : 4:2:0
    Bit depth : 8 bits
    Scan type : Progressive
    Compression mode : Lossy
    Bits/(Pixel*Frame) : 0.225
    Stream size : 2.13 GiB (96%)
    Writing library : Lavc56.13.100

    Audio
    ID : 2
    Format : AAC LC
    Format/Info : Advanced Audio Codec Low Complexity
    Codec ID : mp4a-40-2
    Duration : 2 h 12 min
    Bit rate mode : Constant
    Bit rate : 96.0 kb/s
    Channel(s) : 2 channels
    Channel layout : L R
    Sampling rate : 44.1 kHz
    Frame rate : 43.066 FPS (1024 SPF)
    Compression mode : Lossy
    Stream size : 90.8 MiB (4%)
    Default : Yes
    Alternate group : 1


    Kód:
    http://www.xdisk.cz/cs/download.php?id=CC5904B81


    Kód:
    https://mega.nz/#!LQsVTbCB!G3VTHJtrpRJloHIvAkTpktnX1BnqTCP5IPw2JM1kQM4




    Kód:
    https://data.hu/get/12354985/Czech_Wife_Swap_5.001
    https://data.hu/get/12354984/Czech_Wife_Swap_5.002
    https://data.hu/get/12354986/Czech_Wife_Swap_5.003
    https://data.hu/get/12354983/Czech_Wife_Swap_5.crc

  6. #6
    Status
    Offline
    lion46 logója
    Adminisztrátor
    Csatlakozott
    15-07-17
    Életkor
    54
    Összes hozzászólás
    2.355
    Hírnév szint
    10
    Czech Wife Swap 6 XXX.DVDRip



    General
    Complete name : Czech Wife Swap 6.mp4
    Format : MPEG-4
    Format profile : Base Media
    Codec ID : isom (isom/iso2/mp41)
    File size : 1.56 GiB
    Duration : 1 h 40 min
    Overall bit rate mode : Variable
    Overall bit rate : 2 223 kb/s
    Writing application : Lavf56.15.102

    Video
    ID : 1
    Format : MPEG-4 Visual
    Format profile : Simple@L1
    Format settings, BVOP : No
    Format settings, QPel : No
    Format settings, GMC : No warppoints
    Format settings, Matrix : Default (H.263)
    Codec ID : mp4v-20
    Duration : 1 h 40 min
    Bit rate mode : Variable
    Bit rate : 2 121 kb/s
    Maximum bit rate : 2 306 kb/s
    Width : 854 pixels
    Height : 480 pixels
    Display aspect ratio : 16:9
    Frame rate mode : Constant
    Frame rate : 25.000 FPS
    Color space : YUV
    Chroma subsampling : 4:2:0
    Bit depth : 8 bits
    Scan type : Progressive
    Compression mode : Lossy
    Bits/(Pixel*Frame) : 0.207
    Stream size : 1.49 GiB (95%)
    Writing library : Lavc56.13.100

    Audio
    ID : 2
    Format : AAC LC
    Format/Info : Advanced Audio Codec Low Complexity
    Codec ID : mp4a-40-2
    Duration : 1 h 40 min
    Bit rate mode : Constant
    Bit rate : 96.0 kb/s
    Channel(s) : 2 channels
    Channel layout : L R
    Sampling rate : 44.1 kHz
    Frame rate : 43.066 FPS (1024 SPF)
    Compression mode : Lossy
    Stream size : 69.1 MiB (4%)
    Default : Yes
    Alternate group : 1


    Kód:
    http://www.xdisk.cz/cs/download.php?id=87411CB51


    Kód:
    https://mega.nz/#!fd9VzIgQ!4mQnVFupcpA8WmVjQ30obX0yjGwPkjX97FDf25Y0Trk




    Kód:
    https://data.hu/get/12355083/Czech_Wife_Swap_6.zip

  7. #7
    Status
    Offline
    lion46 logója
    Adminisztrátor
    Csatlakozott
    15-07-17
    Életkor
    54
    Összes hozzászólás
    2.355
    Hírnév szint
    10
    Czech Wife Swap 7 XXX.DVDRip




    General
    Complete name : Czech Wife Swap 7.mp4
    Format : MPEG-4
    Format profile : Base Media
    Codec ID : isom (isom/iso2/mp41)
    File size : 1.52 GiB
    Duration : 1 h 30 min
    Overall bit rate mode : Constant
    Overall bit rate : 2 407 kb/s
    Writing application : Lavf56.15.102

    Video
    ID : 1
    Format : MPEG-4 Visual
    Format profile : Simple@L1
    Format settings, BVOP : No
    Format settings, QPel : No
    Format settings, GMC : No warppoints
    Format settings, Matrix : Default (H.263)
    Codec ID : mp4v-20
    Duration : 1 h 30 min
    Bit rate mode : Constant
    Bit rate : 2 306 kb/s
    Width : 854 pixels
    Height : 480 pixels
    Display aspect ratio : 16:9
    Frame rate mode : Constant
    Frame rate : 25.000 FPS
    Color space : YUV
    Chroma subsampling : 4:2:0
    Bit depth : 8 bits
    Scan type : Progressive
    Compression mode : Lossy
    Bits/(Pixel*Frame) : 0.225
    Stream size : 1.45 GiB (96%)
    Writing library : Lavc56.13.100

    Audio
    ID : 2
    Format : AAC LC
    Format/Info : Advanced Audio Codec Low Complexity
    Codec ID : mp4a-40-2
    Duration : 1 h 30 min
    Bit rate mode : Constant
    Bit rate : 96.0 kb/s
    Channel(s) : 2 channels
    Channel layout : L R
    Sampling rate : 44.1 kHz
    Frame rate : 43.066 FPS (1024 SPF)
    Compression mode : Lossy
    Stream size : 62.0 MiB (4%)
    Default : Yes
    Alternate group : 1



    Kód:
    http://www.xdisk.cz/cs/download.php?id=B2CEB4B71


    Kód:
    https://mega.nz/#!7QUTBYJS!cdficmsZV1S5ro8eUskfAX2cdglZmZrQAujpcKV7LQM


    Kód:
    https://data.hu/get/12359956/Czech_Wife_Swap_7.zip

  8. #8
    Status
    Offline
    lion46 logója
    Adminisztrátor
    Csatlakozott
    15-07-17
    Életkor
    54
    Összes hozzászólás
    2.355
    Hírnév szint
    10
    Czech Wife Swap 8 XXX.DVDRip




    General
    Complete name : Czech Wife Swap 8.mp4
    Format : MPEG-4
    Format profile : Base Media
    Codec ID : isom (isom/iso2/mp41)
    File size : 2.45 GiB
    Duration : 2 h 25 min
    Overall bit rate mode : Constant
    Overall bit rate : 2 407 kb/s
    Writing application : Lavf56.15.102

    Video
    ID : 1
    Format : MPEG-4 Visual
    Format profile : Simple@L1
    Format settings, BVOP : No
    Format settings, QPel : No
    Format settings, GMC : No warppoints
    Format settings, Matrix : Default (H.263)
    Codec ID : mp4v-20
    Duration : 2 h 25 min
    Bit rate mode : Constant
    Bit rate : 2 306 kb/s
    Width : 854 pixels
    Height : 480 pixels
    Display aspect ratio : 16:9
    Frame rate mode : Constant
    Frame rate : 25.000 FPS
    Color space : YUV
    Chroma subsampling : 4:2:0
    Bit depth : 8 bits
    Scan type : Progressive
    Compression mode : Lossy
    Bits/(Pixel*Frame) : 0.225
    Stream size : 2.34 GiB (96%)
    Writing library : Lavc56.13.100

    Audio
    ID : 2
    Format : AAC LC
    Format/Info : Advanced Audio Codec Low Complexity
    Codec ID : mp4a-40-2
    Duration : 2 h 25 min
    Bit rate mode : Constant
    Bit rate : 96.0 kb/s
    Channel(s) : 2 channels
    Channel layout : L R
    Sampling rate : 44.1 kHz
    Frame rate : 43.066 FPS (1024 SPF)
    Compression mode : Lossy
    Stream size : 99.8 MiB (4%)
    Default : Yes
    Alternate group : 1



    Kód:
    http://www.xdisk.cz/cs/download.php?id=A32139781


    Kód:
    https://mega.nz/#!nA1zxJhJ!W8ItNGPbX0-LuJ77zzMcZfXHe-Kbj9Bo9uC6wEYYIGE


    Kód:
    https://data.hu/get/12360033/Czech_Wife_Swap_8.001
    https://data.hu/get/12360031/Czech_Wife_Swap_8.002
    https://data.hu/get/12360032/Czech_Wife_Swap_8.003
    https://data.hu/get/12360030/Czech_Wife_Swap_8.crc

  9. #9
    Status
    Offline
    lion46 logója
    Adminisztrátor
    Csatlakozott
    15-07-17
    Életkor
    54
    Összes hozzászólás
    2.355
    Hírnév szint
    10
    Czech Wife Swap 9 XXX.DVDRip




    General
    Complete name :Czech Wife Swap 9.mp4
    Format : MPEG-4
    Format profile : Base Media
    Codec ID : isom (isom/iso2/mp41)
    File size : 2.26 GiB
    Duration : 2 h 14 min
    Overall bit rate mode : Constant
    Overall bit rate : 2 407 kb/s
    Writing application : Lavf56.15.102

    Video
    ID : 1
    Format : MPEG-4 Visual
    Format profile : Simple@L1
    Format settings, BVOP : No
    Format settings, QPel : No
    Format settings, GMC : No warppoints
    Format settings, Matrix : Default (H.263)
    Codec ID : mp4v-20
    Duration : 2 h 14 min
    Bit rate mode : Constant
    Bit rate : 2 306 kb/s
    Width : 854 pixels
    Height : 480 pixels
    Display aspect ratio : 16:9
    Frame rate mode : Constant
    Frame rate : 25.000 FPS
    Color space : YUV
    Chroma subsampling : 4:2:0
    Bit depth : 8 bits
    Scan type : Progressive
    Compression mode : Lossy
    Bits/(Pixel*Frame) : 0.225
    Stream size : 2.16 GiB (96%)
    Writing library : Lavc56.13.100

    Audio
    ID : 2
    Format : AAC LC
    Format/Info : Advanced Audio Codec Low Complexity
    Codec ID : mp4a-40-2
    Duration : 2 h 14 min
    Bit rate mode : Constant
    Bit rate : 96.0 kb/s
    Channel(s) : 2 channels
    Channel layout : L R
    Sampling rate : 44.1 kHz
    Frame rate : 43.066 FPS (1024 SPF)
    Compression mode : Lossy
    Stream size : 92.2 MiB (4%)
    Default : Yes
    Alternate group : 1


    Kód:
    http://www.xdisk.cz/cs/download.php?id=B0F513391


    Kód:
    https://mega.nz/#!DYtRFAYA!bV3nVBhGfh6CUbtYDD-bi2f2Zp5_nWDrpLipsHCk7us



    Kód:
    https://data.hu/get/12361217/Czech_Wife_Swap_9.001
    https://data.hu/get/12361215/Czech_Wife_Swap_9.002
    https://data.hu/get/12361218/Czech_Wife_Swap_9.003
    https://data.hu/get/12361214/Czech_Wife_Swap_9.crc

  10. #10
    Status
    Offline
    lion46 logója
    Adminisztrátor
    Csatlakozott
    15-07-17
    Életkor
    54
    Összes hozzászólás
    2.355
    Hírnév szint
    10
    Czech Wife Swap 10 XXX.DVDRip




    General
    Complete name :Czech Wife Swap 10.mp4
    Format : MPEG-4
    Format profile : Base Media
    Codec ID : isom (isom/iso2/mp41)
    File size : 1.80 GiB
    Duration : 1 h 47 min
    Overall bit rate mode : Constant
    Overall bit rate : 2 407 kb/s
    Writing application : Lavf56.15.102

    Video
    ID : 1
    Format : MPEG-4 Visual
    Format profile : Simple@L1
    Format settings, BVOP : No
    Format settings, QPel : No
    Format settings, GMC : No warppoints
    Format settings, Matrix : Default (H.263)
    Codec ID : mp4v-20
    Duration : 1 h 47 min
    Bit rate mode : Constant
    Bit rate : 2 305 kb/s
    Width : 854 pixels
    Height : 480 pixels
    Display aspect ratio : 16:9
    Frame rate mode : Constant
    Frame rate : 25.000 FPS
    Color space : YUV
    Chroma subsampling : 4:2:0
    Bit depth : 8 bits
    Scan type : Progressive
    Compression mode : Lossy
    Bits/(Pixel*Frame) : 0.225
    Stream size : 1.73 GiB (96%)
    Writing library : Lavc56.13.100

    Audio
    ID : 2
    Format : AAC LC
    Format/Info : Advanced Audio Codec Low Complexity
    Codec ID : mp4a-40-2
    Duration : 1 h 47 min
    Bit rate mode : Constant
    Bit rate : 96.0 kb/s
    Channel(s) : 2 channels
    Channel layout : L R
    Sampling rate : 44.1 kHz
    Frame rate : 43.066 FPS (1024 SPF)
    Compression mode : Lossy
    Stream size : 73.7 MiB (4%)
    Default : Yes
    Alternate group : 1


    Kód:
    http://www.xdisk.cz/cs/download.php?id=D319634D1


    Kód:
    https://mega.nz/#!6JN2xSzA!cG9P5WVpjZT87y3FQyodh3hOMTTf9Vz3zBnS00snqmg



    Kód:
    https://data.hu/get/12363366/Czech_Wife_Swap_10.zip

  11. #11
    Status
    Offline
    lion46 logója
    Adminisztrátor
    Csatlakozott
    15-07-17
    Életkor
    54
    Összes hozzászólás
    2.355
    Hírnév szint
    10
    Czech Wife Swap 11 XXX.DVDRip




    General
    Complete name : Czech Wife Swap 11.mp4
    Format : MPEG-4
    Format profile : Base Media
    Codec ID : isom (isom/iso2/mp41)
    File size : 2.17 GiB
    Duration : 2 h 9 min
    Overall bit rate mode : Constant
    Overall bit rate : 2 407 kb/s
    Writing application : Lavf56.15.102

    Video
    ID : 1
    Format : MPEG-4 Visual
    Format profile : Simple@L1
    Format settings, BVOP : No
    Format settings, QPel : No
    Format settings, GMC : No warppoints
    Format settings, Matrix : Default (H.263)
    Codec ID : mp4v-20
    Duration : 2 h 9 min
    Bit rate mode : Constant
    Bit rate : 2 306 kb/s
    Width : 854 pixels
    Height : 480 pixels
    Display aspect ratio : 16:9
    Frame rate mode : Constant
    Frame rate : 25.000 FPS
    Color space : YUV
    Chroma subsampling : 4:2:0
    Bit depth : 8 bits
    Scan type : Progressive
    Compression mode : Lossy
    Bits/(Pixel*Frame) : 0.225
    Stream size : 2.08 GiB (96%)
    Writing library : Lavc56.13.100

    Audio
    ID : 2
    Format : AAC LC
    Format/Info : Advanced Audio Codec Low Complexity
    Codec ID : mp4a-40-2
    Duration : 2 h 9 min
    Bit rate mode : Constant
    Bit rate : 96.0 kb/s
    Channel(s) : 2 channels
    Channel layout : L R
    Sampling rate : 44.1 kHz
    Frame rate : 43.066 FPS (1024 SPF)
    Compression mode : Lossy
    Stream size : 88.7 MiB (4%)
    Default : Yes
    Alternate group : 1



    Kód:
    http://www.xdisk.cz/cs/download.php?id=1C5485CB1


    Kód:
    https://mega.nz/#!rYthRQgI!aeENzSZgaww-HEJZg220_6Xrq6RStEmXKmHyt-Qknk0


    Kód:
    https://data.hu/get/12363564/Czech_Wife_Swap_11.001
    https://data.hu/get/12363562/Czech_Wife_Swap_11.002
    https://data.hu/get/12363565/Czech_Wife_Swap_11.003
    https://data.hu/get/12363563/Czech_Wife_Swap_11.crc

  12. #12
    Status
    Offline
    lion46 logója
    Adminisztrátor
    Csatlakozott
    15-07-17
    Életkor
    54
    Összes hozzászólás
    2.355
    Hírnév szint
    10
    Czech Wife Swap 12 XXX.DVDRip




    General
    Complete name : Czech Wife Swap 12.mp4
    Format : MPEG-4
    Format profile : Base Media
    Codec ID : isom (isom/iso2/mp41)
    File size : 1.89 GiB
    Duration : 1 h 34 min
    Overall bit rate mode : Constant
    Overall bit rate : 2 870 kb/s
    Writing application : Lavf56.15.102

    Video
    ID : 1
    Format : MPEG-4 Visual
    Format profile : Simple@L1
    Format settings, BVOP : No
    Format settings, QPel : No
    Format settings, GMC : No warppoints
    Format settings, Matrix : Default (H.263)
    Codec ID : mp4v-20
    Duration : 1 h 34 min
    Bit rate mode : Constant
    Bit rate : 2 767 kb/s
    Width : 854 pixels
    Height : 480 pixels
    Display aspect ratio : 16:9
    Frame rate mode : Constant
    Frame rate : 30.000 FPS
    Color space : YUV
    Chroma subsampling : 4:2:0
    Bit depth : 8 bits
    Scan type : Progressive
    Compression mode : Lossy
    Bits/(Pixel*Frame) : 0.225
    Stream size : 1.82 GiB (96%)
    Writing library : Lavc56.13.100

    Audio
    ID : 2
    Format : AAC LC
    Format/Info : Advanced Audio Codec Low Complexity
    Codec ID : mp4a-40-2
    Duration : 1 h 34 min
    Bit rate mode : Constant
    Bit rate : 96.0 kb/s
    Channel(s) : 2 channels
    Channel layout : L R
    Sampling rate : 44.1 kHz
    Frame rate : 43.066 FPS (1024 SPF)
    Compression mode : Lossy
    Stream size : 64.6 MiB (3%)
    Default : Yes
    Alternate group : 1



    Kód:
    http://www.xdisk.cz/cs/download.php?id=3013B14E1


    Kód:
    https://mega.nz/#!mUEnDAgA!DpvEPM6bBUkO9tUkfy1Hik73v275xWPv1eRWSViv4Ro


    Kód:
    https://data.hu/get/12364544/Czech_Wife_Swap_12.zip

Hasonló témák

  1. XXX Videók Czech Couples 01-36 amator swingers
    lion46 a fórumba Czech XXX videók
    Válaszok: 35
    Utolsó hozzászólás: 2020-06-18, 06:26
  2. XXX Filmek Moms In Control 01-12 (2015-2019)
    lion46 a fórumba Brazzers XXX
    Válaszok: 11
    Utolsó hozzászólás: 2019-07-27, 11:46
  3. XXX Filmek Daughter Swap 3 (2018)
    lion46 a fórumba Incest (Family) XXX
    Válaszok: 0
    Utolsó hozzászólás: 2018-05-16, 15:56
  4. XXX Filmek Foxy Lady 01-12 (1985-1988)
    lion46 a fórumba Teresa Orlowsky filmjei.
    Válaszok: 11
    Utolsó hozzászólás: 2015-10-19, 20:35
  5. Lesbian Babysitters 01-12
    lion46 a fórumba Sweetheart XXX filmek
    Válaszok: 11
    Utolsó hozzászólás: 2015-07-07, 12:38

Könyvjelzők

Hozzászólás szabályai

  • Új témákat hozhat létre
  • Válaszokat küldhet
  • Fájlokat csatolhat
  • A hozzászólásaidat módosíthatod
  •  
  • BB code is bekapcsolva
  • Pofik bekapcsolva
  • Az [IMG] kód bekapcsolva
  • [VIDEO] code is bekapcsolva
  • A HTML kód bekapcsolva