Colocation Libertine French (2017) XXX.DVDRip


Starring: Tiffany Leiddi, Emma Green, Sophia Bekti, Rick Vegas
Genre: Etero, Mature, Anal, Oral, Cum Shots.

General
Complete name : Colocation Libertine.mp4
Format : MPEG-4
Format profile : Base Media
Codec ID : isom (isom/iso2/avc1/mp41)
File size : 777 MiB
Duration : 1 h 38 min
Overall bit rate : 1 099 kb/s
Writing application : Lavf58.35.100

Video
ID : 1
Format : AVC
Format/Info : Advanced Video Codec
Format profile : Main@L3.1
Format settings : CABAC / 1 Ref Frames
Format settings, CABAC : Yes
Format settings, Reference : 1 frame
Format settings, GOP : M=1, N=25
Codec ID : avc1
Codec ID/Info : Advanced Video Coding
Duration : 1 h 38 min
Bit rate : 933 kb/s
Width : 960 pixels
Height : 540 pixels
Display aspect ratio : 16:9
Frame rate mode : Constant
Frame rate : 25.000 FPS
Color space : YUV
Chroma subsampling : 4:2:0
Bit depth : 8 bits
Scan type : Progressive
Bits/(Pixel*Frame) : 0.072
Stream size : 660 MiB (85%)
Writing library : x264 core 152 r2851 ba24899
Encoding settings : cabac=1 / ref=1 / deblock=1:0:0 / analyse=0x1:0x111 / me=hex / subme=2 / psy=1 / psy_rd=1.00:0.00 / mixed_ref=0 / me_range=16 / chroma_me=1 / trellis=0 / 8x8dct=0 / cqm=0 / deadzone=21,11 / fast_pskip=1 / chroma_qp_offset=0 / threads=12 / lookahead_threads=4 / sliced_threads=0 / nr=0 / decimate=1 / interlaced=0 / bluray_compat=0 / constrained_intra=0 / bframes=0 / weightp=1 / keyint=25 / keyint_min=2 / scenecut=40 / intra_refresh=0 / rc_lookahead=10 / rc=crf / mbtree=1 / crf=24.0 / qcomp=0.60 / qpmin=24 / qpmax=24 / qpstep=4 / ip_ratio=1.40 / aq=1:1.00
Color range : Full
Codec configuration box : avcC

Audio
ID : 2
Format : AAC LC
Format/Info : Advanced Audio Codec Low Complexity
Codec ID : mp4a-40-2
Duration : 1 h 38 min
Bit rate mode : Constant
Bit rate : 160 kb/s
Channel(s) : 2 channels
Channel layout : L R
Sampling rate : 44.1 kHz
Frame rate : 43.066 FPS (1024 SPF)
Compression mode : Lossy
Stream size : 113 MiB (15%)
Default : Yes
Alternate group : 1


Kód:
https://mega.nz/file/K0R3gIwY#pdqJYzWP_KhixH6mC2nuJHUZ1_07MIYz69zbeiNBAKc


Kód:
https://data.hu/get/12542210/Colocation_Libertine.001
https://data.hu/get/12542208/Colocation_Libertine.002
https://data.hu/get/12542211/Colocation_Libertine.003
https://data.hu/get/12542213/Colocation_Libertine.004
https://data.hu/get/12542212/Colocation_Libertine.crc


Kód:
https://data.hu/get/12542209/Colocation_Libertine.zip


Kód:
https://www.bitporno.com/v/GHH7E70Q5S
Kód:
https://videa.hu/videok/felnott/colocation-libertine.mp4-amateri-big-ass-FBDIwUqXgZPvh6M3