Oldal: 2 / 2 ElsőElső 12
Eredmény: 21 - 36 (36) összesen
  1. #21
    Status
    Offline
    lion46 logója
    Adminisztrátor
    Csatlakozott
    15-07-17
    Életkor
    54
    Összes hozzászólás
    2.355
    Hírnév szint
    10
    CzechFirstVideo 21 - Helena - Furry Pussy.mp4



    General
    Complete name : CzechFirstVideo 21 - Helena - Furry Pussy.mp4
    Format : MPEG-4
    Format profile : Base Media
    Codec ID : isom (isom/iso2/avc1/mp41)
    File size : 717 MiB
    Duration : 1 h 3 min
    Overall bit rate mode : Variable
    Overall bit rate : 1 571 kb/s
    Writing application : Lavf58.39.100

    Video
    ID : 1
    Format : AVC
    Format/Info : Advanced Video Codec
    Format profile : High@L3.1
    Format settings : CABAC / 1 Ref Frames
    Format settings, CABAC : Yes
    Format settings, Reference : 1 frame
    Format settings, GOP : M=1, N=25
    Codec ID : avc1
    Codec ID/Info : Advanced Video Coding
    Duration : 1 h 3 min
    Bit rate mode : Variable
    Bit rate : 1 554 kb/s
    Width : 720 pixels
    Height : 576 pixels
    Display aspect ratio : 5:4
    Frame rate mode : Constant
    Frame rate : 25.000 FPS
    Standard : PAL
    Color space : YUV
    Chroma subsampling : 4:2:0
    Bit depth : 8 bits
    Scan type : Progressive
    Bits/(Pixel*Frame) : 0.150
    Stream size : 709 MiB (99%)
    Codec configuration box : avcC

    Audio
    ID : 2
    Format : AAC LC
    Format/Info : Advanced Audio Codec Low Complexity
    Codec ID : mp4a-40-2
    Duration : 1 h 3 min
    Bit rate mode : Constant
    Bit rate : 12.4 kb/s
    Channel(s) : 2 channels
    Channel layout : L R
    Sampling rate : 44.1 kHz
    Frame rate : 43.066 FPS (1024 SPF)
    Compression mode : Lossy
    Stream size : 5.66 MiB (1%)
    Default : Yes
    Alternate group : 1




    Kód:
    https://mega.nz/file/jEc2hAjA#fPfzwsI3OcO8kkkalmmCMJyuFxsyoh_VODWQ4NDpF74

    Kód:
    https://data.hu/get/12581155/CzechFirstVideo_21_-_Helena_-_Furry_Pussy.001
    https://data.hu/get/12581152/CzechFirstVideo_21_-_Helena_-_Furry_Pussy.002
    https://data.hu/get/12581157/CzechFirstVideo_21_-_Helena_-_Furry_Pussy.003
    https://data.hu/get/12581158/CzechFirstVideo_21_-_Helena_-_Furry_Pussy.004
    https://data.hu/get/12581154/CzechFirstVideo_21_-_Helena_-_Furry_Pussy.crc


    Kód:
    https://data.hu/get/12581153/CzechFirstVideo_21_-_Helena_-_Furry_Pussy.zip


    Kód:
    https://videa.hu/videok/felnott/czechfirstvideo-21-helena-furry-pussy.mp4-amateur-anal-blonde-9ZDLJTGTYt40aCqA

  2. #22
    Status
    Offline
    lion46 logója
    Adminisztrátor
    Csatlakozott
    15-07-17
    Életkor
    54
    Összes hozzászólás
    2.355
    Hírnév szint
    10
    CzechFirstVideo 22 - Denisa - Blonde Gets All The Cum



    General
    Complete name : CzechFirstVideo 22 - Denisa - Blonde Gets All The Cum.mp4
    Format : MPEG-4
    Format profile : Base Media
    Codec ID : isom (isom/iso2/avc1/mp41)
    File size : 562 MiB
    Duration : 50 min 2 s
    Overall bit rate : 1 571 kb/s
    Writing application : Lavf58.39.100

    Video
    ID : 1
    Format : AVC
    Format/Info : Advanced Video Codec
    Format profile : Main@L3
    Format settings : CABAC / 1 Ref Frames
    Format settings, CABAC : Yes
    Format settings, Reference : 1 frame
    Codec ID : avc1
    Codec ID/Info : Advanced Video Coding
    Duration : 50 min 2 s
    Bit rate : 1 555 kb/s
    Width : 720 pixels
    Height : 576 pixels
    Display aspect ratio : 5:4
    Frame rate mode : Constant
    Frame rate : 25.000 FPS
    Standard : PAL
    Color space : YUV
    Chroma subsampling : 4:2:0
    Bit depth : 8 bits
    Scan type : Progressive
    Bits/(Pixel*Frame) : 0.150
    Stream size : 556 MiB (99%)
    Writing library : x264 core 158 r2984 3759fcb
    Encoding settings : cabac=1 / ref=1 / deblock=1:0:0 / analyse=0x1:0x111 / me=hex / subme=2 / psy=1 / psy_rd=1.00:0.00 / mixed_ref=0 / me_range=16 / chroma_me=1 / trellis=0 / 8x8dct=0 / cqm=0 / deadzone=21,11 / fast_pskip=1 / chroma_qp_offset=0 / threads=12 / lookahead_threads=4 / sliced_threads=0 / nr=0 / decimate=1 / interlaced=0 / bluray_compat=0 / constrained_intra=0 / bframes=0 / weightp=1 / keyint=25 / keyint_min=2 / scenecut=40 / intra_refresh=0 / rc_lookahead=10 / rc=cbr / mbtree=1 / bitrate=1555 / ratetol=1.0 / qcomp=0.60 / qpmin=0 / qpmax=69 / qpstep=4 / vbv_maxrate=1555 / vbv_bufsize=2332 / nal_hrd=none / filler=0 / ip_ratio=1.40 / aq=1:1.00
    Color range : Full
    Codec configuration box : avcC

    Audio
    ID : 2
    Format : AAC LC
    Format/Info : Advanced Audio Codec Low Complexity
    Codec ID : mp4a-40-2
    Duration : 50 min 2 s
    Bit rate mode : Constant
    Bit rate : 12.4 kb/s
    Channel(s) : 2 channels
    Channel layout : L R
    Sampling rate : 44.1 kHz
    Frame rate : 43.066 FPS (1024 SPF)
    Compression mode : Lossy
    Stream size : 4.44 MiB (1%)
    Default : Yes
    Alternate group : 1




    Kód:
    https://mega.nz/file/6VcHGawY#iUL013A05jQAFriAHBNLOKNrN90iMeMkJjpGmyT7x-o

    Kód:
    https://data.hu/get/12581222/CzechFirstVideo_22_-_Denisa_-_Blonde_Gets_All_The_Cum.001
    https://data.hu/get/12581223/CzechFirstVideo_22_-_Denisa_-_Blonde_Gets_All_The_Cum.002
    https://data.hu/get/12581226/CzechFirstVideo_22_-_Denisa_-_Blonde_Gets_All_The_Cum.003
    https://data.hu/get/12581220/CzechFirstVideo_22_-_Denisa_-_Blonde_Gets_All_The_Cum.crc


    Kód:
    https://data.hu/get/12581225/CzechFirstVideo_22_-_Denisa_-_Blonde_Gets_All_The_Cum.zip


    Kód:
    https://videa.hu/videok/felnott/czechfirstvideo-22-denisa-blonde-gets-amateur-anal-blowjob-RDBjIx6XEhL2hYs3

  3. #23
    Status
    Offline
    lion46 logója
    Adminisztrátor
    Csatlakozott
    15-07-17
    Életkor
    54
    Összes hozzászólás
    2.355
    Hírnév szint
    10
    CzechFirstVideo 23 - Petra - Fresh Ass.mp4



    General
    Complete name : CzechFirstVideo 23 - Petra - Fresh Ass.mp4
    Format : MPEG-4
    Format profile : Base Media
    Codec ID : isom (isom/iso2/avc1/mp41)
    File size : 573 MiB
    Duration : 51 min 0 s
    Overall bit rate : 1 571 kb/s
    Writing application : Lavf58.39.100

    Video
    ID : 1
    Format : AVC
    Format/Info : Advanced Video Codec
    Format profile : Main@L3
    Format settings : CABAC / 1 Ref Frames
    Format settings, CABAC : Yes
    Format settings, Reference : 1 frame
    Codec ID : avc1
    Codec ID/Info : Advanced Video Coding
    Duration : 51 min 0 s
    Bit rate : 1 555 kb/s
    Width : 720 pixels
    Height : 576 pixels
    Display aspect ratio : 5:4
    Frame rate mode : Constant
    Frame rate : 25.000 FPS
    Standard : PAL
    Color space : YUV
    Chroma subsampling : 4:2:0
    Bit depth : 8 bits
    Scan type : Progressive
    Bits/(Pixel*Frame) : 0.150
    Stream size : 567 MiB (99%)
    Writing library : x264 core 158 r2984 3759fcb
    Encoding settings : cabac=1 / ref=1 / deblock=1:0:0 / analyse=0x1:0x111 / me=hex / subme=2 / psy=1 / psy_rd=1.00:0.00 / mixed_ref=0 / me_range=16 / chroma_me=1 / trellis=0 / 8x8dct=0 / cqm=0 / deadzone=21,11 / fast_pskip=1 / chroma_qp_offset=0 / threads=12 / lookahead_threads=4 / sliced_threads=0 / nr=0 / decimate=1 / interlaced=0 / bluray_compat=0 / constrained_intra=0 / bframes=0 / weightp=1 / keyint=25 / keyint_min=2 / scenecut=40 / intra_refresh=0 / rc_lookahead=10 / rc=cbr / mbtree=1 / bitrate=1555 / ratetol=1.0 / qcomp=0.60 / qpmin=0 / qpmax=69 / qpstep=4 / vbv_maxrate=1555 / vbv_bufsize=2332 / nal_hrd=none / filler=0 / ip_ratio=1.40 / aq=1:1.00
    Color range : Full
    Codec configuration box : avcC

    Audio
    ID : 2
    Format : AAC LC
    Format/Info : Advanced Audio Codec Low Complexity
    Codec ID : mp4a-40-2
    Duration : 51 min 0 s
    Bit rate mode : Constant
    Bit rate : 12.4 kb/s
    Channel(s) : 2 channels
    Channel layout : L R
    Sampling rate : 44.1 kHz
    Frame rate : 43.066 FPS (1024 SPF)
    Compression mode : Lossy
    Stream size : 4.53 MiB (1%)
    Default : Yes
    Alternate group : 1




    Kód:
    https://mega.nz/file/CBdByK4C#QL-cLK0b-iPgrxXOaCgnSXFOcJmOAwHgKYR_9Vxn5UA

    Kód:
    https://data.hu/get/12581238/CzechFirstVideo_23_-_Petra_-_Fresh_Ass.001
    https://data.hu/get/12581235/CzechFirstVideo_23_-_Petra_-_Fresh_Ass.002
    https://data.hu/get/12581239/CzechFirstVideo_23_-_Petra_-_Fresh_Ass.003
    https://data.hu/get/12581236/CzechFirstVideo_23_-_Petra_-_Fresh_Ass.crc


    Kód:
    https://data.hu/get/12581237/CzechFirstVideo_23_-_Petra_-_Fresh_Ass.zip


    Kód:
    https://videa.hu/videok/felnott/czechfirstvideo-23-petra-fresh-ass.mp4-amateur-anal-blonde-dsxSlfPY5OfZVyFl

  4. #24
    Status
    Offline
    lion46 logója
    Adminisztrátor
    Csatlakozott
    15-07-17
    Életkor
    54
    Összes hozzászólás
    2.355
    Hírnév szint
    10
    CzechFirstVideo 24 - Kristyna aka Kristina Tribal - Busty Strip.mp4



    General
    Complete name :CzechFirstVideo 24 - Kristyna aka Kristina Tribal - Busty Strip.mp4
    Format : MPEG-4
    Format profile : Base Media
    Codec ID : isom (isom/iso2/avc1/mp41)
    File size : 536 MiB
    Duration : 47 min 40 s
    Overall bit rate : 1 571 kb/s
    Writing application : Lavf58.39.100

    Video
    ID : 1
    Format : AVC
    Format/Info : Advanced Video Codec
    Format profile : Main@L3
    Format settings : CABAC / 1 Ref Frames
    Format settings, CABAC : Yes
    Format settings, Reference : 1 frame
    Codec ID : avc1
    Codec ID/Info : Advanced Video Coding
    Duration : 47 min 40 s
    Bit rate : 1 555 kb/s
    Width : 720 pixels
    Height : 576 pixels
    Display aspect ratio : 5:4
    Frame rate mode : Constant
    Frame rate : 25.000 FPS
    Standard : PAL
    Color space : YUV
    Chroma subsampling : 4:2:0
    Bit depth : 8 bits
    Scan type : Progressive
    Bits/(Pixel*Frame) : 0.150
    Stream size : 530 MiB (99%)
    Writing library : x264 core 158 r2984 3759fcb
    Encoding settings : cabac=1 / ref=1 / deblock=1:0:0 / analyse=0x1:0x111 / me=hex / subme=2 / psy=1 / psy_rd=1.00:0.00 / mixed_ref=0 / me_range=16 / chroma_me=1 / trellis=0 / 8x8dct=0 / cqm=0 / deadzone=21,11 / fast_pskip=1 / chroma_qp_offset=0 / threads=12 / lookahead_threads=4 / sliced_threads=0 / nr=0 / decimate=1 / interlaced=0 / bluray_compat=0 / constrained_intra=0 / bframes=0 / weightp=1 / keyint=25 / keyint_min=2 / scenecut=40 / intra_refresh=0 / rc_lookahead=10 / rc=cbr / mbtree=1 / bitrate=1555 / ratetol=1.0 / qcomp=0.60 / qpmin=0 / qpmax=69 / qpstep=4 / vbv_maxrate=1555 / vbv_bufsize=2332 / nal_hrd=none / filler=0 / ip_ratio=1.40 / aq=1:1.00
    Color range : Full
    Codec configuration box : avcC

    Audio
    ID : 2
    Format : AAC LC
    Format/Info : Advanced Audio Codec Low Complexity
    Codec ID : mp4a-40-2
    Duration : 47 min 40 s
    Bit rate mode : Constant
    Bit rate : 12.4 kb/s
    Channel(s) : 2 channels
    Channel layout : L R
    Sampling rate : 44.1 kHz
    Frame rate : 43.066 FPS (1024 SPF)
    Compression mode : Lossy
    Stream size : 4.23 MiB (1%)
    Default : Yes
    Alternate group : 1




    Kód:
    https://mega.nz/file/6ZFnzIBJ#7ElAN2qqr_QHBEUxvg004jLfrBlxr86tVcW8OHe_3p4

    Kód:
    https://data.hu/get/12581266/CzechFirstVideo_24_-_Kristyna_aka_Kristina_Tribal_-_Busty_Strip.001
    https://data.hu/get/12581264/CzechFirstVideo_24_-_Kristyna_aka_Kristina_Tribal_-_Busty_Strip.002
    https://data.hu/get/12581268/CzechFirstVideo_24_-_Kristyna_aka_Kristina_Tribal_-_Busty_Strip.003
    https://data.hu/get/12581263/CzechFirstVideo_24_-_Kristyna_aka_Kristina_Tribal_-_Busty_Strip.crc


    Kód:
    https://data.hu/get/12581262/CzechFirstVideo_24_-_Kristyna_aka_Kristina_Tribal_-_Busty_Strip.zip


    Kód:
    https://videa.hu/videok/felnott/czechfirstvideo-24-kristyna-aka-kristina-amateur-anal-blonde-IdNETjlLdikoZGzz

  5. #25
    Status
    Offline
    lion46 logója
    Adminisztrátor
    Csatlakozott
    15-07-17
    Életkor
    54
    Összes hozzászólás
    2.355
    Hírnév szint
    10
    CzechFirstVideo 25 - Lucka - She Swallows Just Fine.mp4



    General
    Complete name : CzechFirstVideo 25 - Lucka - She Swallows Just Fine.mp4
    Format : MPEG-4
    Format profile : Base Media
    Codec ID : isom (isom/iso2/avc1/mp41)
    File size : 673 MiB
    Duration : 59 min 54 s
    Overall bit rate : 1 571 kb/s
    Writing application : Lavf58.39.100

    Video
    ID : 1
    Format : AVC
    Format/Info : Advanced Video Codec
    Format profile : Main@L3
    Format settings : CABAC / 1 Ref Frames
    Format settings, CABAC : Yes
    Format settings, Reference : 1 frame
    Codec ID : avc1
    Codec ID/Info : Advanced Video Coding
    Duration : 59 min 54 s
    Bit rate : 1 555 kb/s
    Width : 720 pixels
    Height : 576 pixels
    Display aspect ratio : 5:4
    Frame rate mode : Constant
    Frame rate : 25.000 FPS
    Standard : PAL
    Color space : YUV
    Chroma subsampling : 4:2:0
    Bit depth : 8 bits
    Scan type : Progressive
    Bits/(Pixel*Frame) : 0.150
    Stream size : 666 MiB (99%)
    Writing library : x264 core 158 r2984 3759fcb
    Encoding settings : cabac=1 / ref=1 / deblock=1:0:0 / analyse=0x1:0x111 / me=hex / subme=2 / psy=1 / psy_rd=1.00:0.00 / mixed_ref=0 / me_range=16 / chroma_me=1 / trellis=0 / 8x8dct=0 / cqm=0 / deadzone=21,11 / fast_pskip=1 / chroma_qp_offset=0 / threads=12 / lookahead_threads=4 / sliced_threads=0 / nr=0 / decimate=1 / interlaced=0 / bluray_compat=0 / constrained_intra=0 / bframes=0 / weightp=1 / keyint=25 / keyint_min=2 / scenecut=40 / intra_refresh=0 / rc_lookahead=10 / rc=cbr / mbtree=1 / bitrate=1555 / ratetol=1.0 / qcomp=0.60 / qpmin=0 / qpmax=69 / qpstep=4 / vbv_maxrate=1555 / vbv_bufsize=2332 / nal_hrd=none / filler=0 / ip_ratio=1.40 / aq=1:1.00
    Color range : Full
    Codec configuration box : avcC

    Audio
    ID : 2
    Format : AAC LC
    Format/Info : Advanced Audio Codec Low Complexity
    Codec ID : mp4a-40-2
    Duration : 59 min 54 s
    Bit rate mode : Constant
    Bit rate : 12.4 kb/s
    Channel(s) : 2 channels
    Channel layout : L R
    Sampling rate : 44.1 kHz
    Frame rate : 43.066 FPS (1024 SPF)
    Compression mode : Lossy
    Stream size : 5.32 MiB (1%)
    Default : Yes
    Alternate group : 1




    Kód:
    https://mega.nz/file/KFlXxQiB#7MwBdA_9iFEE9ztCDxzvcAR-gKTpZr1FhmBbpx0GPac

    Kód:
    https://data.hu/get/12581313/CzechFirstVideo_25_-_Lucka_-_She_Swallows_Just_Fine.001
    https://data.hu/get/12581315/CzechFirstVideo_25_-_Lucka_-_She_Swallows_Just_Fine.002
    https://data.hu/get/12581318/CzechFirstVideo_25_-_Lucka_-_She_Swallows_Just_Fine.003
    https://data.hu/get/12581319/CzechFirstVideo_25_-_Lucka_-_She_Swallows_Just_Fine.004
    https://data.hu/get/12581317/CzechFirstVideo_25_-_Lucka_-_She_Swallows_Just_Fine.crc


    Kód:
    https://data.hu/get/12581316/CzechFirstVideo_25_-_Lucka_-_She_Swallows_Just_Fine.zip


    Kód:
    https://videa.hu/videok/felnott/czechfirstvideo-25-lucka-she-swallows-amateur-anal-blonde-qgecDhDy67LiyKD7

  6. #26
    Status
    Offline
    lion46 logója
    Adminisztrátor
    Csatlakozott
    15-07-17
    Életkor
    54
    Összes hozzászólás
    2.355
    Hírnév szint
    10
    CzechFirstVideo 26 - Tereza - Barely Legal Schoolgirl.mp4



    General
    Complete name : CzechFirstVideo 26 - Tereza - Barely Legal Schoolgirl.mp4
    Format : MPEG-4
    Format profile : Base Media
    Codec ID : isom (isom/iso2/avc1/mp41)
    File size : 784 MiB
    Duration : 1 h 9 min
    Overall bit rate : 1 571 kb/s
    Writing application : Lavf58.39.100

    Video
    ID : 1
    Format : AVC
    Format/Info : Advanced Video Codec
    Format profile : Main@L3
    Format settings : CABAC / 1 Ref Frames
    Format settings, CABAC : Yes
    Format settings, Reference : 1 frame
    Codec ID : avc1
    Codec ID/Info : Advanced Video Coding
    Duration : 1 h 9 min
    Bit rate : 1 555 kb/s
    Width : 720 pixels
    Height : 576 pixels
    Display aspect ratio : 5:4
    Frame rate mode : Constant
    Frame rate : 25.000 FPS
    Standard : PAL
    Color space : YUV
    Chroma subsampling : 4:2:0
    Bit depth : 8 bits
    Scan type : Progressive
    Bits/(Pixel*Frame) : 0.150
    Stream size : 776 MiB (99%)
    Writing library : x264 core 158 r2984 3759fcb
    Encoding settings : cabac=1 / ref=1 / deblock=1:0:0 / analyse=0x1:0x111 / me=hex / subme=2 / psy=1 / psy_rd=1.00:0.00 / mixed_ref=0 / me_range=16 / chroma_me=1 / trellis=0 / 8x8dct=0 / cqm=0 / deadzone=21,11 / fast_pskip=1 / chroma_qp_offset=0 / threads=12 / lookahead_threads=4 / sliced_threads=0 / nr=0 / decimate=1 / interlaced=0 / bluray_compat=0 / constrained_intra=0 / bframes=0 / weightp=1 / keyint=25 / keyint_min=2 / scenecut=40 / intra_refresh=0 / rc_lookahead=10 / rc=cbr / mbtree=1 / bitrate=1555 / ratetol=1.0 / qcomp=0.60 / qpmin=0 / qpmax=69 / qpstep=4 / vbv_maxrate=1555 / vbv_bufsize=2332 / nal_hrd=none / filler=0 / ip_ratio=1.40 / aq=1:1.00
    Color range : Full
    Codec configuration box : avcC

    Audio
    ID : 2
    Format : AAC LC
    Format/Info : Advanced Audio Codec Low Complexity
    Codec ID : mp4a-40-2
    Duration : 1 h 9 min
    Bit rate mode : Constant
    Bit rate : 12.4 kb/s
    Channel(s) : 2 channels
    Channel layout : L R
    Sampling rate : 44.1 kHz
    Frame rate : 43.066 FPS (1024 SPF)
    Compression mode : Lossy
    Stream size : 6.19 MiB (1%)
    Default : Yes
    Alternate group : 1




    Kód:
    https://mega.nz/file/ed9jVIoC#OvS8oW6SBfj3rcIsLQsOOo-8Ft8xM9Um5FQaHQHiBCo

    Kód:
    https://data.hu/get/12581340/CzechFirstVideo_26_-_Tereza_-_Barely_Legal_Schoolgirl.001
    https://data.hu/get/12581338/CzechFirstVideo_26_-_Tereza_-_Barely_Legal_Schoolgirl.002
    https://data.hu/get/12581342/CzechFirstVideo_26_-_Tereza_-_Barely_Legal_Schoolgirl.003
    https://data.hu/get/12581341/CzechFirstVideo_26_-_Tereza_-_Barely_Legal_Schoolgirl.004
    https://data.hu/get/12581337/CzechFirstVideo_26_-_Tereza_-_Barely_Legal_Schoolgirl.crc


    Kód:
    https://data.hu/get/12581339/CzechFirstVideo_26_-_Tereza_-_Barely_Legal_Schoolgirl.zip


    Kód:
    https://videa.hu/videok/felnott/czechfirstvideo-26-tereza-barely-legal-amateur-anal-blonde-jM94uNnbYMDYgjGP

  7. #27
    Status
    Offline
    lion46 logója
    Adminisztrátor
    Csatlakozott
    15-07-17
    Életkor
    54
    Összes hozzászólás
    2.355
    Hírnév szint
    10
    CzechFirstVideo 27 - Adriena - Anal Premiere For A Uni Student.mp4



    General
    Complete name : CzechFirstVideo 27 - Adriena - Anal Premiere For A Uni Student.mp4
    Format : MPEG-4
    Format profile : Base Media
    Codec ID : isom (isom/iso2/avc1/mp41)
    File size : 617 MiB
    Duration : 54 min 52 s
    Overall bit rate : 1 571 kb/s
    Writing application : Lavf58.39.100

    Video
    ID : 1
    Format : AVC
    Format/Info : Advanced Video Codec
    Format profile : Main@L3
    Format settings : CABAC / 1 Ref Frames
    Format settings, CABAC : Yes
    Format settings, Reference : 1 frame
    Codec ID : avc1
    Codec ID/Info : Advanced Video Coding
    Duration : 54 min 52 s
    Bit rate : 1 555 kb/s
    Width : 720 pixels
    Height : 576 pixels
    Display aspect ratio : 5:4
    Frame rate mode : Constant
    Frame rate : 25.000 FPS
    Standard : PAL
    Color space : YUV
    Chroma subsampling : 4:2:0
    Bit depth : 8 bits
    Scan type : Progressive
    Bits/(Pixel*Frame) : 0.150
    Stream size : 610 MiB (99%)
    Writing library : x264 core 158 r2984 3759fcb
    Encoding settings : cabac=1 / ref=1 / deblock=1:0:0 / analyse=0x1:0x111 / me=hex / subme=2 / psy=1 / psy_rd=1.00:0.00 / mixed_ref=0 / me_range=16 / chroma_me=1 / trellis=0 / 8x8dct=0 / cqm=0 / deadzone=21,11 / fast_pskip=1 / chroma_qp_offset=0 / threads=12 / lookahead_threads=4 / sliced_threads=0 / nr=0 / decimate=1 / interlaced=0 / bluray_compat=0 / constrained_intra=0 / bframes=0 / weightp=1 / keyint=25 / keyint_min=2 / scenecut=40 / intra_refresh=0 / rc_lookahead=10 / rc=cbr / mbtree=1 / bitrate=1555 / ratetol=1.0 / qcomp=0.60 / qpmin=0 / qpmax=69 / qpstep=4 / vbv_maxrate=1555 / vbv_bufsize=2332 / nal_hrd=none / filler=0 / ip_ratio=1.40 / aq=1:1.00
    Color range : Full
    Codec configuration box : avcC

    Audio
    ID : 2
    Format : AAC LC
    Format/Info : Advanced Audio Codec Low Complexity
    Codec ID : mp4a-40-2
    Duration : 54 min 52 s
    Bit rate mode : Constant
    Bit rate : 12.4 kb/s
    Channel(s) : 2 channels
    Channel layout : L R
    Sampling rate : 44.1 kHz
    Frame rate : 43.066 FPS (1024 SPF)
    Compression mode : Lossy
    Stream size : 4.87 MiB (1%)
    Default : Yes
    Alternate group : 1




    Kód:
    https://mega.nz/file/SN9HRaQJ#BuHGITML-dpZ3gWNceYL5v4e-WG_a-uuNkFiuMJ8ycc

    Kód:
    https://data.hu/get/12581349/CzechFirstVideo_27_-_Adriena_-_Anal_Premiere_For_A_Uni_Student.001
    https://data.hu/get/12581348/CzechFirstVideo_27_-_Adriena_-_Anal_Premiere_For_A_Uni_Student.002
    https://data.hu/get/12581350/CzechFirstVideo_27_-_Adriena_-_Anal_Premiere_For_A_Uni_Student.003
    https://data.hu/get/12581353/CzechFirstVideo_27_-_Adriena_-_Anal_Premiere_For_A_Uni_Student.004
    https://data.hu/get/12581352/CzechFirstVideo_27_-_Adriena_-_Anal_Premiere_For_A_Uni_Student.crc


    Kód:
    https://data.hu/get/12581351/CzechFirstVideo_27_-_Adriena_-_Anal_Premiere_For_A_Uni_Student.zip


    Kód:
    https://videa.hu/videok/felnott/czechfirstvideo-27-adriena-anal-premiere-amateur-blonde-blowjob-0HRi6YsFJhVqNbsC

  8. #28
    Status
    Offline
    lion46 logója
    Adminisztrátor
    Csatlakozott
    15-07-17
    Életkor
    54
    Összes hozzászólás
    2.355
    Hírnév szint
    10
    CzechFirstVideo 28 - Andrea - Superb Anal Bitch.mp4



    General
    Complete name : CzechFirstVideo 28 - Andrea - Superb Anal Bitch.mp4
    Format : MPEG-4
    Format profile : Base Media
    Codec ID : isom (isom/iso2/avc1/mp41)
    File size : 668 MiB
    Duration : 59 min 25 s
    Overall bit rate : 1 571 kb/s
    Writing application : Lavf58.39.100

    Video
    ID : 1
    Format : AVC
    Format/Info : Advanced Video Codec
    Format profile : Main@L3
    Format settings : CABAC / 1 Ref Frames
    Format settings, CABAC : Yes
    Format settings, Reference : 1 frame
    Codec ID : avc1
    Codec ID/Info : Advanced Video Coding
    Duration : 59 min 25 s
    Bit rate : 1 555 kb/s
    Width : 720 pixels
    Height : 576 pixels
    Display aspect ratio : 5:4
    Frame rate mode : Constant
    Frame rate : 25.000 FPS
    Standard : PAL
    Color space : YUV
    Chroma subsampling : 4:2:0
    Bit depth : 8 bits
    Scan type : Progressive
    Bits/(Pixel*Frame) : 0.150
    Stream size : 660 MiB (99%)
    Writing library : x264 core 158 r2984 3759fcb
    Encoding settings : cabac=1 / ref=1 / deblock=1:0:0 / analyse=0x1:0x111 / me=hex / subme=2 / psy=1 / psy_rd=1.00:0.00 / mixed_ref=0 / me_range=16 / chroma_me=1 / trellis=0 / 8x8dct=0 / cqm=0 / deadzone=21,11 / fast_pskip=1 / chroma_qp_offset=0 / threads=12 / lookahead_threads=4 / sliced_threads=0 / nr=0 / decimate=1 / interlaced=0 / bluray_compat=0 / constrained_intra=0 / bframes=0 / weightp=1 / keyint=25 / keyint_min=2 / scenecut=40 / intra_refresh=0 / rc_lookahead=10 / rc=cbr / mbtree=1 / bitrate=1555 / ratetol=1.0 / qcomp=0.60 / qpmin=0 / qpmax=69 / qpstep=4 / vbv_maxrate=1555 / vbv_bufsize=2332 / nal_hrd=none / filler=0 / ip_ratio=1.40 / aq=1:1.00
    Color range : Full
    Codec configuration box : avcC

    Audio
    ID : 2
    Format : AAC LC
    Format/Info : Advanced Audio Codec Low Complexity
    Codec ID : mp4a-40-2
    Duration : 59 min 25 s
    Bit rate mode : Constant
    Bit rate : 12.4 kb/s
    Channel(s) : 2 channels
    Channel layout : L R
    Sampling rate : 44.1 kHz
    Frame rate : 43.066 FPS (1024 SPF)
    Compression mode : Lossy
    Stream size : 5.27 MiB (1%)
    Default : Yes
    Alternate group : 1




    Kód:
    https://mega.nz/file/SMlRQQBA#dy_asuk18-KRw48_fTMsUAljSYLWAHiQqL0xSnqdKXo

    Kód:
    https://data.hu/get/12581376/CzechFirstVideo_28_-_Andrea_-_Superb_Anal_Bitch.001
    https://data.hu/get/12581374/CzechFirstVideo_28_-_Andrea_-_Superb_Anal_Bitch.002
    https://data.hu/get/12581377/CzechFirstVideo_28_-_Andrea_-_Superb_Anal_Bitch.003
    https://data.hu/get/12581378/CzechFirstVideo_28_-_Andrea_-_Superb_Anal_Bitch.004
    https://data.hu/get/12581379/CzechFirstVideo_28_-_Andrea_-_Superb_Anal_Bitch.crc


    Kód:
    https://data.hu/get/12581375/CzechFirstVideo_28_-_Andrea_-_Superb_Anal_Bitch.zip


    Kód:
    https://videa.hu/videok/felnott/czechfirstvideo-28-andrea-superb-anal-amateur-blonde-blowjob-HA5RHe1U7FmauRmN

  9. #29
    Status
    Offline
    lion46 logója
    Adminisztrátor
    Csatlakozott
    15-07-17
    Életkor
    54
    Összes hozzászólás
    2.355
    Hírnév szint
    10
    CzechFirstVideo 29 - Alena and Katka - Two Anal Friends



    General
    Complete name : CzechFirstVideo 29 - Alena and Katka - Two Anal Friends.mp4
    Format : MPEG-4
    Format profile : Base Media
    Codec ID : isom (isom/iso2/avc1/mp41)
    File size : 1.42 GiB
    Duration : 2 h 9 min
    Overall bit rate : 1 572 kb/s
    Writing application : Lavf58.39.100

    Video
    ID : 1
    Format : AVC
    Format/Info : Advanced Video Codec
    Format profile : Main@L3
    Format settings : CABAC / 1 Ref Frames
    Format settings, CABAC : Yes
    Format settings, Reference : 1 frame
    Codec ID : avc1
    Codec ID/Info : Advanced Video Coding
    Duration : 2 h 9 min
    Bit rate : 1 555 kb/s
    Width : 720 pixels
    Height : 576 pixels
    Display aspect ratio : 5:4
    Frame rate mode : Constant
    Frame rate : 25.000 FPS
    Standard : PAL
    Color space : YUV
    Chroma subsampling : 4:2:0
    Bit depth : 8 bits
    Scan type : Progressive
    Bits/(Pixel*Frame) : 0.150
    Stream size : 1.40 GiB (99%)
    Writing library : x264 core 158 r2984 3759fcb
    Encoding settings : cabac=1 / ref=1 / deblock=1:0:0 / analyse=0x1:0x111 / me=hex / subme=2 / psy=1 / psy_rd=1.00:0.00 / mixed_ref=0 / me_range=16 / chroma_me=1 / trellis=0 / 8x8dct=0 / cqm=0 / deadzone=21,11 / fast_pskip=1 / chroma_qp_offset=0 / threads=12 / lookahead_threads=4 / sliced_threads=0 / nr=0 / decimate=1 / interlaced=0 / bluray_compat=0 / constrained_intra=0 / bframes=0 / weightp=1 / keyint=25 / keyint_min=2 / scenecut=40 / intra_refresh=0 / rc_lookahead=10 / rc=cbr / mbtree=1 / bitrate=1555 / ratetol=1.0 / qcomp=0.60 / qpmin=0 / qpmax=69 / qpstep=4 / vbv_maxrate=1555 / vbv_bufsize=2332 / nal_hrd=none / filler=0 / ip_ratio=1.40 / aq=1:1.00
    Color range : Full
    Codec configuration box : avcC

    Audio
    ID : 2
    Format : AAC LC
    Format/Info : Advanced Audio Codec Low Complexity
    Codec ID : mp4a-40-2
    Duration : 2 h 9 min
    Bit rate mode : Constant
    Bit rate : 12.4 kb/s
    Channel(s) : 2 channels
    Channel layout : L R
    Sampling rate : 44.1 kHz
    Frame rate : 43.066 FPS (1024 SPF)
    Compression mode : Lossy
    Stream size : 11.5 MiB (1%)
    Default : Yes
    Alternate group : 1



    Kód:
    https://mega.nz/file/gzpjgRKB#8Z3CZCnAEkihk8_-p3gyK46JqH6M8Knr5VVEEjtQEvA

    Kód:
    https://data.hu/get/12582143/CzechFirstVideo_29_-_Alena_and_Katka_-_Two_Anal_Friends.001
    https://data.hu/get/12582140/CzechFirstVideo_29_-_Alena_and_Katka_-_Two_Anal_Friends.002
    https://data.hu/get/12582144/CzechFirstVideo_29_-_Alena_and_Katka_-_Two_Anal_Friends.003
    https://data.hu/get/12582146/CzechFirstVideo_29_-_Alena_and_Katka_-_Two_Anal_Friends.004
    https://data.hu/get/12582142/CzechFirstVideo_29_-_Alena_and_Katka_-_Two_Anal_Friends.005
    https://data.hu/get/12582141/CzechFirstVideo_29_-_Alena_and_Katka_-_Two_Anal_Friends.006
    https://data.hu/get/12582145/CzechFirstVideo_29_-_Alena_and_Katka_-_Two_Anal_Friends.007
    https://data.hu/get/12582137/CzechFirstVideo_29_-_Alena_and_Katka_-_Two_Anal_Friends.008
    https://data.hu/get/12582139/CzechFirstVideo_29_-_Alena_and_Katka_-_Two_Anal_Friends.crc


    Kód:
    https://data.hu/get/12582138/CzechFirstVideo_29_-_Alena_and_Katka_-_Two_Anal_Friends.zip

    Kód:
    https://videa.hu/videok/felnott/czechfirstvideo-29-alena-and-katka-amateur-anal-blonde-uhdHN6HCE4yUG5LM

  10. #30
    Status
    Offline
    lion46 logója
    Adminisztrátor
    Csatlakozott
    15-07-17
    Életkor
    54
    Összes hozzászólás
    2.355
    Hírnév szint
    10
    CzechFirstVideo 30 - Veronika - Anal Date





    General
    Complete name : CzechFirstVideo 30 - Veronika - Anal Date.mp4
    Format : MPEG-4
    Format profile : Base Media
    Codec ID : isom (isom/iso2/avc1/mp41)
    File size : 451 MiB
    Duration : 40 min 8 s
    Overall bit rate : 1 570 kb/s
    Writing application : Lavf58.39.100


    Video
    ID : 1
    Format : AVC
    Format/Info : Advanced Video Codec
    Format profile : Main@L3
    Format settings : CABAC / 1 Ref Frames
    Format settings, CABAC : Yes
    Format settings, Reference : 1 frame
    Codec ID : avc1
    Codec ID/Info : Advanced Video Coding
    Duration : 40 min 8 s
    Bit rate : 1 555 kb/s
    Width : 720 pixels
    Height : 576 pixels
    Display aspect ratio : 5:4
    Frame rate mode : Constant
    Frame rate : 25.000 FPS
    Standard : PAL
    Color space : YUV
    Chroma subsampling : 4:2:0
    Bit depth : 8 bits
    Scan type : Progressive
    Bits/(Pixel*Frame) : 0.150
    Stream size : 446 MiB (99%)
    Writing library : x264 core 158 r2984 3759fcb
    Encoding settings : cabac=1 / ref=1 / deblock=1:0:0 / analyse=0x1:0x111 / me=hex / subme=2 / psy=1 / psy_rd=1.00:0.00 / mixed_ref=0 / me_range=16 / chroma_me=1 / trellis=0 / 8x8dct=0 / cqm=0 / deadzone=21,11 / fast_pskip=1 / chroma_qp_offset=0 / threads=12 / lookahead_threads=4 / sliced_threads=0 / nr=0 / decimate=1 / interlaced=0 / bluray_compat=0 / constrained_intra=0 / bframes=0 / weightp=1 / keyint=25 / keyint_min=2 / scenecut=40 / intra_refresh=0 / rc_lookahead=10 / rc=cbr / mbtree=1 / bitrate=1555 / ratetol=1.0 / qcomp=0.60 / qpmin=0 / qpmax=69 / qpstep=4 / vbv_maxrate=1555 / vbv_bufsize=2332 / nal_hrd=none / filler=0 / ip_ratio=1.40 / aq=1:1.00
    Color range : Full
    Codec configuration box : avcC


    Audio
    ID : 2
    Format : AAC LC
    Format/Info : Advanced Audio Codec Low Complexity
    Codec ID : mp4a-40-2
    Duration : 40 min 8 s
    Bit rate mode : Constant
    Bit rate : 12.4 kb/s
    Channel(s) : 2 channels
    Channel layout : L R
    Sampling rate : 44.1 kHz
    Frame rate : 43.066 FPS (1024 SPF)
    Compression mode : Lossy
    Stream size : 3.56 MiB (1%)
    Default : Yes
    Alternate group : 1



    Kód:
    http://hiderefer.com/?http://mega.nz/file/dqgQUCwY#30q9edyKPnjfWiSacNDWHG4HWbnlOamXmDa4HM-p_2Y

    Kód:
    https://data.hu/get/12582152/CzechFirstVideo_30_-_Veronika_-_Anal_Date.001
    https://data.hu/get/12582150/CzechFirstVideo_30_-_Veronika_-_Anal_Date.002
    https://data.hu/get/12582151/CzechFirstVideo_30_-_Veronika_-_Anal_Date.003
    https://data.hu/get/12582148/CzechFirstVideo_30_-_Veronika_-_Anal_Date.crc


    Kód:
    https://data.hu/get/12582149/CzechFirstVideo_30_-_Veronika_-_Anal_Date.zip

    Kód:
    https://videa.hu/videok/felnott/czechfirstvideo-30-veronika-anal-date.mp4-amateur-blonde-blowjob-an1wvnv1WkcCTvYQ

  11. #31
    Status
    Offline
    lion46 logója
    Adminisztrátor
    Csatlakozott
    15-07-17
    Életkor
    54
    Összes hozzászólás
    2.355
    Hírnév szint
    10
    CzechFirstVideo 31 - Kamila - Talented Busty.mp4



    General
    Complete name : CzechFirstVideo 31 - Kamila - Talented Busty.mp4
    Format : MPEG-4
    Format profile : Base Media
    Codec ID : isom (isom/iso2/avc1/mp41)
    File size : 549 MiB
    Duration : 48 min 50 s
    Overall bit rate : 1 571 kb/s
    Writing application : Lavf58.39.100

    Video
    ID : 1
    Format : AVC
    Format/Info : Advanced Video Codec
    Format profile : Main@L3
    Format settings : CABAC / 1 Ref Frames
    Format settings, CABAC : Yes
    Format settings, Reference : 1 frame
    Codec ID : avc1
    Codec ID/Info : Advanced Video Coding
    Duration : 48 min 50 s
    Bit rate : 1 555 kb/s
    Width : 720 pixels
    Height : 576 pixels
    Display aspect ratio : 5:4
    Frame rate mode : Constant
    Frame rate : 25.000 FPS
    Standard : PAL
    Color space : YUV
    Chroma subsampling : 4:2:0
    Bit depth : 8 bits
    Scan type : Progressive
    Bits/(Pixel*Frame) : 0.150
    Stream size : 543 MiB (99%)
    Writing library : x264 core 158 r2984 3759fcb
    Encoding settings : cabac=1 / ref=1 / deblock=1:0:0 / analyse=0x1:0x111 / me=hex / subme=2 / psy=1 / psy_rd=1.00:0.00 / mixed_ref=0 / me_range=16 / chroma_me=1 / trellis=0 / 8x8dct=0 / cqm=0 / deadzone=21,11 / fast_pskip=1 / chroma_qp_offset=0 / threads=12 / lookahead_threads=4 / sliced_threads=0 / nr=0 / decimate=1 / interlaced=0 / bluray_compat=0 / constrained_intra=0 / bframes=0 / weightp=1 / keyint=25 / keyint_min=2 / scenecut=40 / intra_refresh=0 / rc_lookahead=10 / rc=cbr / mbtree=1 / bitrate=1555 / ratetol=1.0 / qcomp=0.60 / qpmin=0 / qpmax=69 / qpstep=4 / vbv_maxrate=1555 / vbv_bufsize=2332 / nal_hrd=none / filler=0 / ip_ratio=1.40 / aq=1:1.00
    Color range : Full
    Codec configuration box : avcC

    Audio
    ID : 2
    Format : AAC LC
    Format/Info : Advanced Audio Codec Low Complexity
    Codec ID : mp4a-40-2
    Duration : 48 min 50 s
    Bit rate mode : Constant
    Bit rate : 12.4 kb/s
    Channel(s) : 2 channels
    Channel layout : L R
    Sampling rate : 44.1 kHz
    Frame rate : 43.066 FPS (1024 SPF)
    Compression mode : Lossy
    Stream size : 4.33 MiB (1%)
    Default : Yes
    Alternate group : 1




    Kód:
    http://mega.nz/file/h3IhBYBZ#FD7wlp2t_OiLB7dWp0IlbrIDn1_Uq6z2BYnFtyd_fa8

    Kód:
    https://data.hu/get/12582162/CzechFirstVideo_31_-_Kamila_-_Talented_Busty.001
    https://data.hu/get/12582155/CzechFirstVideo_31_-_Kamila_-_Talented_Busty.002
    https://data.hu/get/12582164/CzechFirstVideo_31_-_Kamila_-_Talented_Busty.003
    https://data.hu/get/12582159/CzechFirstVideo_31_-_Kamila_-_Talented_Busty.crc


    Kód:
    https://data.hu/get/12582158/CzechFirstVideo_31_-_Kamila_-_Talented_Busty.zip

    Kód:
    https://videa.hu/videok/felnott/czechfirstvideo-31-kamila-talented-busty.-amateur-anal-blonde-QVmXVMd5rAga9Jgp

  12. #32
    Status
    Offline
    lion46 logója
    Adminisztrátor
    Csatlakozott
    15-07-17
    Életkor
    54
    Összes hozzászólás
    2.355
    Hírnév szint
    10
    CzechFirstVideo 32 - Pavla - Heavy Ass Metal.mp4





    General
    Complete name : CzechFirstVideo 32 - Pavla - Heavy Ass Metal.mp4
    Format : MPEG-4
    Format profile : Base Media
    Codec ID : isom (isom/iso2/avc1/mp41)
    File size : 427 MiB
    Duration : 37 min 58 s
    Overall bit rate : 1 570 kb/s
    Writing application : Lavf58.39.100


    Video
    ID : 1
    Format : AVC
    Format/Info : Advanced Video Codec
    Format profile : Main@L3
    Format settings : CABAC / 1 Ref Frames
    Format settings, CABAC : Yes
    Format settings, Reference : 1 frame
    Codec ID : avc1
    Codec ID/Info : Advanced Video Coding
    Duration : 37 min 58 s
    Bit rate : 1 555 kb/s
    Width : 720 pixels
    Height : 576 pixels
    Display aspect ratio : 5:4
    Frame rate mode : Constant
    Frame rate : 25.000 FPS
    Standard : PAL
    Color space : YUV
    Chroma subsampling : 4:2:0
    Bit depth : 8 bits
    Scan type : Progressive
    Bits/(Pixel*Frame) : 0.150
    Stream size : 422 MiB (99%)
    Writing library : x264 core 158 r2984 3759fcb
    Encoding settings : cabac=1 / ref=1 / deblock=1:0:0 / analyse=0x1:0x111 / me=hex / subme=2 / psy=1 / psy_rd=1.00:0.00 / mixed_ref=0 / me_range=16 / chroma_me=1 / trellis=0 / 8x8dct=0 / cqm=0 / deadzone=21,11 / fast_pskip=1 / chroma_qp_offset=0 / threads=12 / lookahead_threads=4 / sliced_threads=0 / nr=0 / decimate=1 / interlaced=0 / bluray_compat=0 / constrained_intra=0 / bframes=0 / weightp=1 / keyint=25 / keyint_min=2 / scenecut=40 / intra_refresh=0 / rc_lookahead=10 / rc=cbr / mbtree=1 / bitrate=1555 / ratetol=1.0 / qcomp=0.60 / qpmin=0 / qpmax=69 / qpstep=4 / vbv_maxrate=1555 / vbv_bufsize=2332 / nal_hrd=none / filler=0 / ip_ratio=1.40 / aq=1:1.00
    Color range : Full
    Codec configuration box : avcC


    Audio
    ID : 2
    Format : AAC LC
    Format/Info : Advanced Audio Codec Low Complexity
    Codec ID : mp4a-40-2
    Duration : 37 min 58 s
    Bit rate mode : Constant
    Bit rate : 12.4 kb/s
    Channel(s) : 2 channels
    Channel layout : L R
    Sampling rate : 44.1 kHz
    Frame rate : 43.066 FPS (1024 SPF)
    Compression mode : Lossy
    Stream size : 3.37 MiB (1%)
    Default : Yes
    Alternate group : 1



    Kód:
    http://mega.nz/file/Y3RFEaYA#wlrf1pjo_HXoN67pbgDWRCivIoNy7mRppgD1uj5BN4A

    Kód:
    https://data.hu/get/12582222/CzechFirstVideo_32_-_Pavla_-_Heavy_Ass_Metal.001
    https://data.hu/get/12582228/CzechFirstVideo_32_-_Pavla_-_Heavy_Ass_Metal.002
    https://data.hu/get/12582226/CzechFirstVideo_32_-_Pavla_-_Heavy_Ass_Metal.003
    https://data.hu/get/12582220/CzechFirstVideo_32_-_Pavla_-_Heavy_Ass_Metal.crc


    Kód:
    https://data.hu/get/12582225/CzechFirstVideo_32_-_Pavla_-_Heavy_Ass_Metal.zip

    Kód:
    https://videa.hu/videok/felnott/czechfirstvideo-32-pavla-heavy-ass-amateur-anal-blonde-CLuHEmN3prXDkQyG

  13. #33
    Status
    Offline
    lion46 logója
    Adminisztrátor
    Csatlakozott
    15-07-17
    Életkor
    54
    Összes hozzászólás
    2.355
    Hírnév szint
    10
    CzechFirstVideo 33 - Marketa - Hot, Busty, Blonde.mp4





    General
    Complete name : CzechFirstVideo 33 - Marketa - Hot, Busty, Blonde.mp4
    Format : MPEG-4
    Format profile : Base Media
    Codec ID : isom (isom/iso2/avc1/mp41)
    File size : 556 MiB
    Duration : 49 min 28 s
    Overall bit rate : 1 571 kb/s
    Writing application : Lavf58.39.100


    Video
    ID : 1
    Format : AVC
    Format/Info : Advanced Video Codec
    Format profile : Main@L3
    Format settings : CABAC / 1 Ref Frames
    Format settings, CABAC : Yes
    Format settings, Reference : 1 frame
    Codec ID : avc1
    Codec ID/Info : Advanced Video Coding
    Duration : 49 min 28 s
    Bit rate : 1 555 kb/s
    Width : 720 pixels
    Height : 576 pixels
    Display aspect ratio : 5:4
    Frame rate mode : Constant
    Frame rate : 25.000 FPS
    Standard : PAL
    Color space : YUV
    Chroma subsampling : 4:2:0
    Bit depth : 8 bits
    Scan type : Progressive
    Bits/(Pixel*Frame) : 0.150
    Stream size : 550 MiB (99%)
    Writing library : x264 core 158 r2984 3759fcb
    Encoding settings : cabac=1 / ref=1 / deblock=1:0:0 / analyse=0x1:0x111 / me=hex / subme=2 / psy=1 / psy_rd=1.00:0.00 / mixed_ref=0 / me_range=16 / chroma_me=1 / trellis=0 / 8x8dct=0 / cqm=0 / deadzone=21,11 / fast_pskip=1 / chroma_qp_offset=0 / threads=12 / lookahead_threads=4 / sliced_threads=0 / nr=0 / decimate=1 / interlaced=0 / bluray_compat=0 / constrained_intra=0 / bframes=0 / weightp=1 / keyint=25 / keyint_min=2 / scenecut=40 / intra_refresh=0 / rc_lookahead=10 / rc=cbr / mbtree=1 / bitrate=1555 / ratetol=1.0 / qcomp=0.60 / qpmin=0 / qpmax=69 / qpstep=4 / vbv_maxrate=1555 / vbv_bufsize=2332 / nal_hrd=none / filler=0 / ip_ratio=1.40 / aq=1:1.00
    Color range : Full
    Codec configuration box : avcC


    Audio
    ID : 2
    Format : AAC LC
    Format/Info : Advanced Audio Codec Low Complexity
    Codec ID : mp4a-40-2
    Duration : 49 min 28 s
    Bit rate mode : Constant
    Bit rate : 12.4 kb/s
    Channel(s) : 2 channels
    Channel layout : L R
    Sampling rate : 44.1 kHz
    Frame rate : 43.066 FPS (1024 SPF)
    Compression mode : Lossy
    Stream size : 4.39 MiB (1%)
    Default : Yes
    Alternate group : 1



    Kód:
    https://mega.nz/file/Y3AwiaDT#nDwffqyna4N7M5tWO7UeXlVlnjk7oV9Z9zEC1CVePL0

    Kód:
    https://data.hu/get/12589748/CzechFirstVideo_33_-_Marketa_-_Hot_Busty_Blonde.001
    https://data.hu/get/12589751/CzechFirstVideo_33_-_Marketa_-_Hot_Busty_Blonde.002
    https://data.hu/get/12589749/CzechFirstVideo_33_-_Marketa_-_Hot_Busty_Blonde.003
    https://data.hu/get/12589747/CzechFirstVideo_33_-_Marketa_-_Hot_Busty_Blonde.004
    https://data.hu/get/12589746/CzechFirstVideo_33_-_Marketa_-_Hot_Busty_Blonde.crc


    Kód:
    https://data.hu/get/12589750/CzechFirstVideo_33_-_Marketa_-_Hot_Busty_Blonde.zip

    Kód:
    https://videa.hu/videok/felnott/czechfirstvideo-33-marketa-hot-busty-amateur-anal-blonde-WNEVNkBHPxKnMqqm

  14. #34
    Status
    Offline
    lion46 logója
    Adminisztrátor
    Csatlakozott
    15-07-17
    Életkor
    54
    Összes hozzászólás
    2.355
    Hírnév szint
    10
    CzechFirstVideo 34 - Julie - Gypsy Anal Dancer.mp4





    General
    Complete name : CzechFirstVideo 34 - Julie - Gypsy Anal Dancer.mp4
    Format : MPEG-4
    Format profile : Base Media
    Codec ID : isom (isom/iso2/avc1/mp41)
    File size : 408 MiB
    Duration : 36 min 19 s
    Overall bit rate : 1 570 kb/s
    Writing application : Lavf58.39.100


    Video
    ID : 1
    Format : AVC
    Format/Info : Advanced Video Codec
    Format profile : Main@L3
    Format settings : CABAC / 1 Ref Frames
    Format settings, CABAC : Yes
    Format settings, Reference : 1 frame
    Codec ID : avc1
    Codec ID/Info : Advanced Video Coding
    Duration : 36 min 19 s
    Bit rate : 1 555 kb/s
    Width : 720 pixels
    Height : 576 pixels
    Display aspect ratio : 5:4
    Frame rate mode : Constant
    Frame rate : 25.000 FPS
    Standard : PAL
    Color space : YUV
    Chroma subsampling : 4:2:0
    Bit depth : 8 bits
    Scan type : Progressive
    Bits/(Pixel*Frame) : 0.150
    Stream size : 403 MiB (99%)
    Writing library : x264 core 158 r2984 3759fcb
    Encoding settings : cabac=1 / ref=1 / deblock=1:0:0 / analyse=0x1:0x111 / me=hex / subme=2 / psy=1 / psy_rd=1.00:0.00 / mixed_ref=0 / me_range=16 / chroma_me=1 / trellis=0 / 8x8dct=0 / cqm=0 / deadzone=21,11 / fast_pskip=1 / chroma_qp_offset=0 / threads=12 / lookahead_threads=4 / sliced_threads=0 / nr=0 / decimate=1 / interlaced=0 / bluray_compat=0 / constrained_intra=0 / bframes=0 / weightp=1 / keyint=25 / keyint_min=2 / scenecut=40 / intra_refresh=0 / rc_lookahead=10 / rc=cbr / mbtree=1 / bitrate=1555 / ratetol=1.0 / qcomp=0.60 / qpmin=0 / qpmax=69 / qpstep=4 / vbv_maxrate=1555 / vbv_bufsize=2332 / nal_hrd=none / filler=0 / ip_ratio=1.40 / aq=1:1.00
    Color range : Full
    Codec configuration box : avcC


    Audio
    ID : 2
    Format : AAC LC
    Format/Info : Advanced Audio Codec Low Complexity
    Codec ID : mp4a-40-2
    Duration : 36 min 19 s
    Bit rate mode : Constant
    Bit rate : 12.4 kb/s
    Channel(s) : 2 channels
    Channel layout : L R
    Sampling rate : 44.1 kHz
    Frame rate : 43.066 FPS (1024 SPF)
    Compression mode : Lossy
    Stream size : 3.22 MiB (1%)
    Default : Yes
    Alternate group : 1



    Kód:
    https://mega.nz/file/UrxlCZoK#h32dhvgNtUJ4tCkUkd9a4FlG9HanvIiZ-xKuF0D7lrk

    Kód:
    https://data.hu/get/12589782/CzechFirstVideo_34_-_Julie_-_Gypsy_Anal_Dancer.001
    https://data.hu/get/12589780/CzechFirstVideo_34_-_Julie_-_Gypsy_Anal_Dancer.002
    https://data.hu/get/12589783/CzechFirstVideo_34_-_Julie_-_Gypsy_Anal_Dancer.003
    https://data.hu/get/12589781/CzechFirstVideo_34_-_Julie_-_Gypsy_Anal_Dancer.crc


    Kód:
    https://data.hu/get/12589784/CzechFirstVideo_34_-_Julie_-_Gypsy_Anal_Dancer.zip

    Kód:
    https://videa.hu/videok/felnott/czechfirstvideo-34-julie-gypsy-anal-amateur-blonde-blowjob-AVNGGNPrMyAzhtiT

  15. #35
    Status
    Offline
    lion46 logója
    Adminisztrátor
    Csatlakozott
    15-07-17
    Életkor
    54
    Összes hozzászólás
    2.355
    Hírnév szint
    10
    CzechFirstVideo 35 - Tereza - Anal For Cash.mp4





    General
    Complete name : CzechFirstVideo 35 - Tereza - Anal For Cash.mp4
    Format : MPEG-4
    Format profile : Base Media
    Codec ID : isom (isom/iso2/avc1/mp41)
    File size : 611 MiB
    Duration : 54 min 21 s
    Overall bit rate : 1 571 kb/s
    Writing application : Lavf58.39.100


    Video
    ID : 1
    Format : AVC
    Format/Info : Advanced Video Codec
    Format profile : Main@L3
    Format settings : CABAC / 1 Ref Frames
    Format settings, CABAC : Yes
    Format settings, Reference : 1 frame
    Codec ID : avc1
    Codec ID/Info : Advanced Video Coding
    Duration : 54 min 21 s
    Bit rate : 1 555 kb/s
    Width : 720 pixels
    Height : 576 pixels
    Display aspect ratio : 5:4
    Frame rate mode : Constant
    Frame rate : 25.000 FPS
    Standard : PAL
    Color space : YUV
    Chroma subsampling : 4:2:0
    Bit depth : 8 bits
    Scan type : Progressive
    Bits/(Pixel*Frame) : 0.150
    Stream size : 604 MiB (99%)
    Writing library : x264 core 158 r2984 3759fcb
    Encoding settings : cabac=1 / ref=1 / deblock=1:0:0 / analyse=0x1:0x111 / me=hex / subme=2 / psy=1 / psy_rd=1.00:0.00 / mixed_ref=0 / me_range=16 / chroma_me=1 / trellis=0 / 8x8dct=0 / cqm=0 / deadzone=21,11 / fast_pskip=1 / chroma_qp_offset=0 / threads=12 / lookahead_threads=4 / sliced_threads=0 / nr=0 / decimate=1 / interlaced=0 / bluray_compat=0 / constrained_intra=0 / bframes=0 / weightp=1 / keyint=25 / keyint_min=2 / scenecut=40 / intra_refresh=0 / rc_lookahead=10 / rc=cbr / mbtree=1 / bitrate=1555 / ratetol=1.0 / qcomp=0.60 / qpmin=0 / qpmax=69 / qpstep=4 / vbv_maxrate=1555 / vbv_bufsize=2332 / nal_hrd=none / filler=0 / ip_ratio=1.40 / aq=1:1.00
    Color range : Full
    Codec configuration box : avcC


    Audio
    ID : 2
    Format : AAC LC
    Format/Info : Advanced Audio Codec Low Complexity
    Codec ID : mp4a-40-2
    Duration : 54 min 21 s
    Bit rate mode : Constant
    Bit rate : 12.4 kb/s
    Channel(s) : 2 channels
    Channel layout : L R
    Sampling rate : 44.1 kHz
    Frame rate : 43.066 FPS (1024 SPF)
    Compression mode : Lossy
    Stream size : 4.82 MiB (1%)
    Default : Yes
    Alternate group : 1



    Kód:
    https://mega.nz/file/96BwCILA#EaEHDsIOsFskwqV24my_busouZ5p3aVMh7Frslfu7_0

    Kód:
    https://data.hu/get/12589804/CzechFirstVideo_35_-_Tereza_-_Anal_For_Cash.001
    https://data.hu/get/12589802/CzechFirstVideo_35_-_Tereza_-_Anal_For_Cash.002
    https://data.hu/get/12589805/CzechFirstVideo_35_-_Tereza_-_Anal_For_Cash.003
    https://data.hu/get/12589807/CzechFirstVideo_35_-_Tereza_-_Anal_For_Cash.004
    https://data.hu/get/12589803/CzechFirstVideo_35_-_Tereza_-_Anal_For_Cash.crc


    Kód:
    https://data.hu/get/12589806/CzechFirstVideo_35_-_Tereza_-_Anal_For_Cash.zip

    Kód:
    https://videa.hu/videok/felnott/czechfirstvideo-35-tereza-anal-for-amateur-blonde-blowjob-O7TNOKAxpPG0oGcg

  16. #36
    Status
    Offline
    lion46 logója
    Adminisztrátor
    Csatlakozott
    15-07-17
    Életkor
    54
    Összes hozzászólás
    2.355
    Hírnév szint
    10
    CzechFirstVideo 36 - Lenka - Anal destruction.mp4





    General
    Complete name : CzechFirstVideo 36 - Lenka - Anal destruction.mp4
    Format : MPEG-4
    Format profile : Base Media
    Codec ID : isom (isom/iso2/avc1/mp41)
    File size : 557 MiB
    Duration : 49 min 36 s
    Overall bit rate : 1 571 kb/s
    Writing application : Lavf58.39.100


    Video
    ID : 1
    Format : AVC
    Format/Info : Advanced Video Codec
    Format profile : Main@L3
    Format settings : CABAC / 1 Ref Frames
    Format settings, CABAC : Yes
    Format settings, Reference : 1 frame
    Codec ID : avc1
    Codec ID/Info : Advanced Video Coding
    Duration : 49 min 36 s
    Bit rate : 1 555 kb/s
    Width : 720 pixels
    Height : 576 pixels
    Display aspect ratio : 5:4
    Frame rate mode : Constant
    Frame rate : 25.000 FPS
    Standard : PAL
    Color space : YUV
    Chroma subsampling : 4:2:0
    Bit depth : 8 bits
    Scan type : Progressive
    Bits/(Pixel*Frame) : 0.150
    Stream size : 551 MiB (99%)
    Writing library : x264 core 158 r2984 3759fcb
    Encoding settings : cabac=1 / ref=1 / deblock=1:0:0 / analyse=0x1:0x111 / me=hex / subme=2 / psy=1 / psy_rd=1.00:0.00 / mixed_ref=0 / me_range=16 / chroma_me=1 / trellis=0 / 8x8dct=0 / cqm=0 / deadzone=21,11 / fast_pskip=1 / chroma_qp_offset=0 / threads=12 / lookahead_threads=4 / sliced_threads=0 / nr=0 / decimate=1 / interlaced=0 / bluray_compat=0 / constrained_intra=0 / bframes=0 / weightp=1 / keyint=25 / keyint_min=2 / scenecut=40 / intra_refresh=0 / rc_lookahead=10 / rc=cbr / mbtree=1 / bitrate=1555 / ratetol=1.0 / qcomp=0.60 / qpmin=0 / qpmax=69 / qpstep=4 / vbv_maxrate=1555 / vbv_bufsize=2332 / nal_hrd=none / filler=0 / ip_ratio=1.40 / aq=1:1.00
    Color range : Full
    Codec configuration box : avcC


    Audio
    ID : 2
    Format : AAC LC
    Format/Info : Advanced Audio Codec Low Complexity
    Codec ID : mp4a-40-2
    Duration : 49 min 36 s
    Bit rate mode : Constant
    Bit rate : 12.4 kb/s
    Channel(s) : 2 channels
    Channel layout : L R
    Sampling rate : 44.1 kHz
    Frame rate : 43.066 FPS (1024 SPF)
    Compression mode : Lossy
    Stream size : 4.40 MiB (1%)
    Default : Yes
    Alternate group : 1



    Kód:
    https://mega.nz/file/12xlDRQL#ivCk8Hj5nLGWl1ICIqq-x-titPGy8bWWGAI1K1ohApA

    Kód:
    https://data.hu/get/12589833/CzechFirstVideo_36_-_Lenka_-_Anal_destruction.001
    https://data.hu/get/12589834/CzechFirstVideo_36_-_Lenka_-_Anal_destruction.002
    https://data.hu/get/12589830/CzechFirstVideo_36_-_Lenka_-_Anal_destruction.003
    https://data.hu/get/12589832/CzechFirstVideo_36_-_Lenka_-_Anal_destruction.crc


    Kód:
    https://data.hu/get/12589831/CzechFirstVideo_36_-_Lenka_-_Anal_destruction.zip

    Kód:
    https://videa.hu/videok/felnott/czechfirstvideo-36-lenka-anal-destruction-amateur-blonde-blowjob-fNDwSJcZm9E350mI

Oldal: 2 / 2 ElsőElső 12

Könyvjelzők

Hozzászólás szabályai

  • Új témákat hozhat létre
  • Válaszokat küldhet
  • Fájlokat csatolhat
  • A hozzászólásaidat módosíthatod
  •  
  • BB code is bekapcsolva
  • Pofik bekapcsolva
  • Az [IMG] kód bekapcsolva
  • [VIDEO] code is bekapcsolva
  • A HTML kód bekapcsolva