Salieri Airlines (2005) XXX.DVDRip




Starring: Bambola, Alyson Ray, Valentina Velasques as Serena Toth, Black Diamond as Eleonara David, Tera Bond as Anita Dergy, Angelika Wild as Angelica Wilde, Uma Best as Uma, Cynthia Lavigne, Lydia Saint Martin as Lidya St. Martin, Karol Bonkar, Francesco Malcom, Don Fernando, Giorgio Grandi, Horst Baron
Director: Mario Salieri


General
Complete name : C:\Users\tamas\Downloads\Video\Salieri Airlines (2005).mp4
Format : MPEG-4
Format profile : Base Media
Codec ID : isom (isom/iso2/avc1/mp41)
File size : 220 MiB
Duration : 1 h 14 min
Overall bit rate : 412 kb/s
Writing application : Lavf57.83.100


Video
ID : 1
Format : AVC
Format/Info : Advanced Video Codec
Format profile : High@L3
Format settings : CABAC / 5 Ref Frames
Format settings, CABAC : Yes
Format settings, Reference fra : 5 frames
Codec ID : avc1
Codec ID/Info : Advanced Video Coding
Duration : 1 h 14 min
Bit rate : 342 kb/s
Width : 854 pixels
Height : 480 pixels
Display aspect ratio : 16:9
Original display aspect ratio : 16:9
Frame rate mode : Constant
Frame rate : 25.000 FPS
Color space : YUV
Chroma subsampling : 4:2:0
Bit depth : 8 bits
Scan type : Progressive
Bits/(Pixel*Frame) : 0.033
Stream size : 182 MiB (83%)
Writing library : x264 core
Codec configuration box : avcC


Audio
ID : 2
Format : AAC LC
Format/Info : Advanced Audio Codec Low Complexity
Codec ID : mp4a-40-2
Duration : 1 h 14 min
Bit rate mode : Constant
Bit rate : 64.0 kb/s
Channel(s) : 2 channels
Channel layout : L R
Sampling rate : 48.0 kHz
Frame rate : 46.875 FPS (1024 SPF)
Compression mode : Lossy
Stream size : 34.2 MiB (16%)
Default : Yes
Alternate group : 1






Kód:
https://mega.nz/file/bAcSRIrS#MqhH4237Hd-qK6NhWKqFLeEqCsgHKSo-VMCkWuf0yLo


Kód:
https://data.hu/get/12574028/Salieri_Airlines_2005.001
https://data.hu/get/12574029/Salieri_Airlines_2005.002
https://data.hu/get/12574031/Salieri_Airlines_2005.003
https://data.hu/get/12574032/Salieri_Airlines_2005.004
https://data.hu/get/12574027/Salieri_Airlines_2005.005
https://data.hu/get/12574030/Salieri_Airlines_2005.crc


Kód:
https://data.hu/get/12574033/Salieri_Airlines_2005.zip


Kód:
https://videa.hu/videok/felnott/salieri-airlines-2005.mp4-cum-hetero-7Y3dlVKxLpuqwJsV