Teenage Rebellion XXX.DVDrip




Pornstars:

General
Complete name : teenage rebellion.mp4
Format : MPEG-4
Format profile : Base Media
Codec ID : isom (isom/iso2/avc1/mp41)
File size : 664 MiB
Duration : 2 h 1 min
Overall bit rate : 762 kb/s
Writing application : Lavf58.30.100

Video
ID : 1
Format : AVC
Format/Info : Advanced Video Codec
Format profile : High@L3
Format settings : CABAC / 5 Ref Frames
Format settings, CABAC : Yes
Format settings, Reference : 5 frames
Codec ID : avc1
Codec ID/Info : Advanced Video Coding
Duration : 2 h 1 min
Bit rate : 664 kb/s
Width : 858 pixels
Height : 480 pixels
Display aspect ratio : 16:9
Original display aspect rat : 16:9
Frame rate mode : Variable
Frame rate : 23.976 FPS
Minimum frame rate : 23.460 FPS
Maximum frame rate : 23.976 FPS
Color space : YUV
Chroma subsampling : 4:2:0
Bit depth : 8 bits
Scan type : Progressive
Bits/(Pixel*Frame) : 0.067
Stream size : 578 MiB (87%)
Writing library : x264
Codec configuration box : avcC

Audio
ID : 2
Format : AAC LC
Format/Info : Advanced Audio Codec Low Complexity
Codec ID : mp4a-40-2
Duration : 2 h 1 min
Bit rate mode : Constant
Bit rate : 93.2 kb/s
Channel(s) : 1 channel
Channel layout : C
Sampling rate : 48.0 kHz
Frame rate : 46.875 FPS (1024 SPF)
Compression mode : Lossy
Stream size : 81.2 MiB (12%)
Default : Yes
Alternate group : 1



Kód:
https://mega.nz/file/svQn0ISB#mOfGITicMX8CKfXM-FV5iVPMt-9fTjYYP0mpVB4x7ak

Kód:
https://data.hu/get/12835181/teenage_rebellion.001
https://data.hu/get/12835180/teenage_rebellion.002
https://data.hu/get/12835179/teenage_rebellion.003
https://data.hu/get/12835178/teenage_rebellion.004
https://data.hu/get/12835177/teenage_rebellion.crc


Kód:
https://data.hu/get/12520919/teenage_rebellion.zip


Kód:
https://videa.hu/videok/felnott/teenage-rebellion.mp4-sisters.-stepsisters-teen-wwwcjiAnGNYU68JO