Troublemakers - 2013 XXX.DVDRip




Pornstars: Chastity Lynn , James Deen , Vicki Chase , Selena Rose , Nicole Aniston , Riley Reid

General
Complete name : Troublemakers - 2013.mp4
Format : MPEG-4
Format profile : Base Media
Codec ID : isom (isom/iso2/avc1/mp41)
File size : 446 MiB
Duration : 1 h 45 min
Overall bit rate mode : Variable
Overall bit rate : 593 kb/s

Video
ID : 1
Format : AVC
Format/Info : Advanced Video Codec
Format profile : Main@L3
Format settings : CABAC / 4 Ref Frames
Format settings, CABAC : Yes
Format settings, Reference : 4 frames
Codec ID : avc1
Codec ID/Info : Advanced Video Coding
Duration : 1 h 45 min
Bit rate : 463 kb/s
Width : 720 pixels
Height : 480 pixels
Display aspect ratio : 3:2
Frame rate mode : Constant
Frame rate : 23.976 (24000/1001) FPS
Color space : YUV
Chroma subsampling : 4:2:0
Bit depth : 8 bits
Scan type : Progressive
Bits/(Pixel*Frame) : 0.056
Stream size : 349 MiB (78%)
Writing library : x264
Codec configuration box : avcC

Audio
ID : 2
Format : AAC LC
Format/Info : Advanced Audio Codec Low Complexity
Codec ID : mp4a-40-2
Duration : 1 h 45 min
Bit rate mode : Variable
Bit rate : 123 kb/s
Maximum bit rate : 469 kb/s
Channel(s) : 2 channels
Channel layout : L R
Sampling rate : 44.1 kHz
Frame rate : 43.066 FPS (1024 SPF)
Compression mode : Lossy
Stream size : 92.7 MiB (21%)
Default : Yes
Alternate group : 1


Kód:
https://data.hu/get/12835149/Troublemakers_-_2013.001?pid=1538548797
https://data.hu/get/12835153/Troublemakers_-_2013.002?pid=1538548797
https://data.hu/get/12835150/Troublemakers_-_2013.003?pid=1538548797
https://data.hu/get/12835152/Troublemakers_-_2013.004?pid=1538548797
https://data.hu/get/12835148/Troublemakers_-_2013.005?pid=1538548797
https://data.hu/get/12835147/Troublemakers_-_2013.crc?pid=1538548797


Kód:
https://data.hu/get/12835164/Troublemakers_-_2013.zip?pid=1538548797

Kód:
https://videa.hu/videok/felnott/troublemakers-2013.mp4-sisters.-stepsisters-teen-Fh3ZursfO8gcfyKt