Don't Worry, He's My Stepbrother (2017) XXX.DVDRip




Pornstars:

General
Complete name : Don't Worry, He's My Stepbrother.mp4
Format : MPEG-4
Format profile : Base Media
Codec ID : isom (isom/iso2/avc1/mp41)
File size : 698 MiB
Duration : 1 h 36 min
Overall bit rate : 1 010 kb/s
Movie name : RARBG.COM - Dont.Worry.Hes.My.Stepbrother.2017.XXX.DVDRip.x264-HAiRYPUSSY
Writing application : Lavf57.56.100
Comment : RARBG.COM - Dont.Worry.Hes.My.Stepbrother.2017.XXX.DVDRip.x264-HAiRYPUSSY

Video
ID : 1
Format : AVC
Format/Info : Advanced Video Codec
Format profile : High@L3
Format settings : CABAC / 5 Ref Frames
Format settings, CABAC : Yes
Format settings, Reference : 5 frames
Codec ID : avc1
Codec ID/Info : Advanced Video Coding
Duration : 1 h 36 min
Bit rate : 935 kb/s
Width : 852 pixels
Height : 480 pixels
Display aspect ratio : 16:9
Frame rate mode : Constant
Frame rate : 23.976 (24000/1001) FPS
Color space : YUV
Chroma subsampling : 4:2:0
Bit depth : 8 bits
Scan type : Progressive
Bits/(Pixel*Frame) : 0.095
Stream size : 646 MiB (93%)
Writing library : x264 core 148
Encoding settings : cabac=1 /
Codec configuration box : avcC

Audio
ID : 2
Format : AAC LC
Format/Info : Advanced Audio Codec Low Complexity
Codec ID : mp4a-40-2
Duration : 1 h 36 min
Bit rate mode : Constant
Bit rate : 69.5 kb/s
Channel(s) : 1 channel
Channel layout : C
Sampling rate : 48.0 kHz
Frame rate : 46.875 FPS (1024 SPF)
Compression mode : Lossy
Stream size : 48.0 MiB (7%)
Default : Yes
Alternate group : 1



Kód:
https://mega.nz/file/p2phlQyQ#dt6HujgxTOW4LkdYwB0HxczjttxVrPsdSvGnr2JTW6U

Kód:
https://data.hu/get/12625495/Dont_Worry_Hes_My_Stepbrother.001
https://data.hu/get/12625494/Dont_Worry_Hes_My_Stepbrother.002
https://data.hu/get/12625492/Dont_Worry_Hes_My_Stepbrother.003
https://data.hu/get/12625493/Dont_Worry_Hes_My_Stepbrother.004
https://data.hu/get/12625496/Dont_Worry_Hes_My_Stepbrother.crc


Kód:
https://data.hu/get/12625497/Dont_Worry_Hes_My_Stepbrother.zip

Kód:
https://www.bitporno.com/v/GGYIULV0X9
https://videa.hu/videok/felnott/dont-worry-hes-my-stepbrother.mp4-sisters.-stepsisters-teen-muzYx79w6QYvPc32