Helló & Üdvözöljük közösségünkben. Ez az első látogatásod? A Regisztrációhoz kattints a Regisztráció gombra. Regisztráció
Kövess minket
Follow us on Facebook Watch us on YouTube
Eredmény: 1 - 3 (3) összesen

Téma: Brothers & Sisters Vol.1-3

Téma Leírása (Opcionális): XXX.DVDRip
  1. #1
    Adminisztrátor lion46 logója
    Csatlakozott
    15-07-17
    Tartózkodási hely
    Barcs
    Életkor
    54
    Összes hozzászólás
    1.991
    Hírnév szint
    10

    Brothers & Sisters Vol.1-3

    Brothers & Sisters Vol.1 XXX.DVDRip




    Starring: Remy LaCroix, Casey Calvert, Seth Gamble, Steven St. Croix, Morgan Lee, Marcus London
    General
    Complete name : Brothers.mp4
    Format : MPEG-4
    Format profile : Base Media
    Codec ID : isom (isom/iso2/avc1/mp41)
    File size : 909 MiB
    Duration : 1 h 52 min
    Overall bit rate : 1 134 kb/s
    Writing application : Lavf58.35.100

    Video
    ID : 1
    Format : AVC
    Format/Info : Advanced Video Codec
    Format profile : Main@L3
    Format settings : CABAC / 1 Ref Frames
    Format settings, CABAC : Yes
    Format settings, Reference : 1 frame
    Format settings, GOP : M=1, N=25
    Codec ID : avc1
    Codec ID/Info : Advanced Video Coding
    Duration : 1 h 51 min
    Bit rate : 999 kb/s
    Width : 848 pixels
    Height : 480 pixels
    Display aspect ratio : 16:9
    Frame rate mode : Constant
    Frame rate : 25.000 FPS
    Color space : YUV
    Chroma subsampling : 4:2:0
    Bit depth : 8 bits
    Scan type : Progressive
    Bits/(Pixel*Frame) : 0.098
    Stream size : 800 MiB (88%)
    Writing library : x264 core 152 r2851 ba24899
    Encoding settings : cabac=1 / ref=1 / deblock=1:0:0 / analyse=0x1:0x111 / me=hex / subme=2 / psy=1 / psy_rd=1.00:0.00 / mixed_ref=0 / me_range=16 / chroma_me=1 / trellis=0 / 8x8dct=0 / cqm=0 / deadzone=21,11 / fast_pskip=1 / chroma_qp_offset=0 / threads=12 / lookahead_threads=3 / sliced_threads=0 / nr=0 / decimate=1 / interlaced=0 / bluray_compat=0 / constrained_intra=0 / bframes=0 / weightp=1 / keyint=25 / keyint_min=2 / scenecut=40 / intra_refresh=0 / rc_lookahead=10 / rc=crf / mbtree=1 / crf=24.0 / qcomp=0.60 / qpmin=24 / qpmax=24 / qpstep=4 / ip_ratio=1.40 / aq=1:1.00
    Color range : Full
    Codec configuration box : avcC

    Audio
    ID : 2
    Format : AAC LC
    Format/Info : Advanced Audio Codec Low Complexity
    Codec ID : mp4a-40-2
    Duration : 1 h 52 min
    Bit rate mode : Constant
    Bit rate : 132 kb/s
    Channel(s) : 2 channels
    Channel layout : L R
    Sampling rate : 44.1 kHz
    Frame rate : 43.066 FPS (1024 SPF)
    Compression mode : Lossy
    Stream size : 105 MiB (12%)
    Default : Yes
    Alternate group :


    Kód:
    https://mega.nz/file/IDoSlSDQ#dMn4KHTfzAnUyFQbKGQjKz4JQyyrhYN8qz7a-BUpUGU

    Kód:
    https://data.hu/get/12521345/Brothers.001
    https://data.hu/get/12521342/Brothers.002
    https://data.hu/get/12521341/Brothers.003
    https://data.hu/get/12521344/Brothers.004
    https://data.hu/get/12521343/Brothers.005
    https://data.hu/get/12521346/Brothers.crc


    Kód:
    https://data.hu/get/12521347/Brothers.zip


    Kód:
     https://videa.hu/videok/felnott/brothers.mp4-brothers-siters-stepsisters-umLNTGI5LqeU0vcC
    https://www.bitporno.com/v/GGYVSDQKAM

  2. #2
    Adminisztrátor lion46 logója
    Csatlakozott
    15-07-17
    Tartózkodási hely
    Barcs
    Életkor
    54
    Összes hozzászólás
    1.991
    Hírnév szint
    10
    Brothers & Sisters Vol 2 (2016) XXX.DVDrip





    Starring: Aidra Fox, James Deen, Tyler Nixon, Marley Brinx, Madi Meadows

    General
    Complete name : Brothers & Sisters Vol2.mp4
    Format : MPEG-4
    Format profile : Base Media
    Codec ID : isom (isom/iso2/avc1/mp41)
    File size : 1.13 GiB
    Duration : 2 h 17 min
    Overall bit rate : 1 183 kb/s
    Writing application : Lavf58.35.100

    Video
    ID : 1
    Format : AVC
    Format/Info : Advanced Video Codec
    Format profile : Main@L3.1
    Format settings : CABAC / 1 Ref Frames
    Format settings, CABAC : Yes
    Format settings, Reference : 1 frame
    Format settings, GOP : M=1, N=25
    Codec ID : avc1
    Codec ID/Info : Advanced Video Coding
    Duration : 2 h 17 min
    Bit rate : 1 043 kb/s
    Width : 966 pixels
    Height : 544 pixels
    Display aspect ratio : 16:9
    Frame rate mode : Constant
    Frame rate : 25.000 FPS
    Color space : YUV
    Chroma subsampling : 4:2:0
    Bit depth : 8 bits
    Scan type : Progressive
    Bits/(Pixel*Frame) : 0.079
    Stream size : 1 023 MiB (88%)
    Writing library : x264 core 152 r2851 ba24899
    Encoding settings : cabac=1 / ref=1 / deblock=1:0:0 / analyse=0x1:0x111 / me=hex / subme=2 / psy=1 / psy_rd=1.00:0.00 / mixed_ref=0 / me_range=16 / chroma_me=1 / trellis=0 / 8x8dct=0 / cqm=0 / deadzone=21,11 / fast_pskip=1 / chroma_qp_offset=0 / threads=12 / lookahead_threads=4 / sliced_threads=0 / nr=0 / decimate=1 / interlaced=0 / bluray_compat=0 / constrained_intra=0 / bframes=0 / weightp=1 / keyint=25 / keyint_min=2 / scenecut=40 / intra_refresh=0 / rc_lookahead=10 / rc=crf / mbtree=1 / crf=24.0 / qcomp=0.60 / qpmin=24 / qpmax=24 / qpstep=4 / ip_ratio=1.40 / aq=1:1.00
    Color range : Full
    Codec configuration box : avcC

    Audio
    ID : 2
    Format : AAC LC
    Format/Info : Advanced Audio Codec Low Complexity
    Codec ID : mp4a-40-2
    Duration : 2 h 17 min
    Bit rate mode : Constant
    Bit rate : 135 kb/s
    Channel(s) : 2 channels
    Channel layout : L R
    Sampling rate : 44.1 kHz
    Frame rate : 43.066 FPS (1024 SPF)
    Compression mode : Lossy
    Stream size : 132 MiB (11%)
    Default : Yes
    Alternate group : 1



    Kód:
    https://mega.nz/file/MS43UIZT#jWbdvU2xR70exoBY9WqkNNocowd41cINcK-qeeAp9h0

    Kód:
    https://data.hu/get/12521365/Brothers__Sisters_Vol2.001
    https://data.hu/get/12521367/Brothers__Sisters_Vol2.002
    https://data.hu/get/12521366/Brothers__Sisters_Vol2.003
    https://data.hu/get/12521369/Brothers__Sisters_Vol2.004
    https://data.hu/get/12521368/Brothers__Sisters_Vol2.005
    https://data.hu/get/12521370/Brothers__Sisters_Vol2.006
    https://data.hu/get/12521372/Brothers__Sisters_Vol2.crc


    Kód:
    https://data.hu/get/12521371/Brothers__Sisters_Vol2.zip


    Kód:
    https://videa.hu/videok/felnott/brothers-sisters-vol2.mp4-sisters.-stepsisters-teen-HZ7E0OoVBOqqMJ5t
    https://www.bitporno.com/v/GGYW4DMOMW

  3. #3
    Adminisztrátor lion46 logója
    Csatlakozott
    15-07-17
    Tartózkodási hely
    Barcs
    Életkor
    54
    Összes hozzászólás
    1.991
    Hírnév szint
    10
    Brothers & Sisters Vol. 3 (2016) XXX.DVDRip



    Starring: Lana Rhoades, Blair Williams, Katie Morgan, Steven St. Croix, Ryan McLane, Lucas Frost

    General
    Complete name : Brothers & Sisters Vol3.mp4
    Format : MPEG-4
    Format profile : Base Media
    Codec ID : isom (isom/iso2/avc1/mp41)
    File size : 926 MiB
    Duration : 2 h 7 min
    Overall bit rate : 1 019 kb/s
    Writing application : Lavf58.35.100

    Video
    ID : 1
    Format : AVC
    Format/Info : Advanced Video Codec
    Format profile : Main@L3
    Format settings : CABAC / 1 Ref Frames
    Format settings, CABAC : Yes
    Format settings, Reference : 1 frame
    Format settings, GOP : M=1, N=25
    Codec ID : avc1
    Codec ID/Info : Advanced Video Coding
    Duration : 2 h 6 min
    Bit rate : 885 kb/s
    Width : 854 pixels
    Height : 480 pixels
    Display aspect ratio : 16:9
    Frame rate mode : Constant
    Frame rate : 25.000 FPS
    Color space : YUV
    Chroma subsampling : 4:2:0
    Bit depth : 8 bits
    Scan type : Progressive
    Bits/(Pixel*Frame) : 0.086
    Stream size : 804 MiB (87%)
    Writing library : x264 core 152 r2851 ba24899
    Encoding settings : cabac=1 / ref=1 / deblock=1:0:0 / analyse=0x1:0x111 / me=hex / subme=2 / psy=1 / psy_rd=1.00:0.00 / mixed_ref=0 / me_range=16 / chroma_me=1 / trellis=0 / 8x8dct=0 / cqm=0 / deadzone=21,11 / fast_pskip=1 / chroma_qp_offset=0 / threads=12 / lookahead_threads=3 / sliced_threads=0 / nr=0 / decimate=1 / interlaced=0 / bluray_compat=0 / constrained_intra=0 / bframes=0 / weightp=1 / keyint=25 / keyint_min=2 / scenecut=40 / intra_refresh=0 / rc_lookahead=10 / rc=crf / mbtree=1 / crf=24.0 / qcomp=0.60 / qpmin=24 / qpmax=24 / qpstep=4 / ip_ratio=1.40 / aq=1:1.00
    Color range : Full
    Codec configuration box : avcC

    Audio
    ID : 2
    Format : AAC LC
    Format/Info : Advanced Audio Codec Low Complexity
    Codec ID : mp4a-40-2
    Duration : 2 h 7 min
    Bit rate mode : Constant
    Bit rate : 129 kb/s
    Channel(s) : 2 channels
    Channel layout : L R
    Sampling rate : 44.1 kHz
    Frame rate : 43.066 FPS (1024 SPF)
    Compression mode : Lossy
    Stream size : 117 MiB (13%)
    Default : Yes
    Alternate group :



    Kód:
    https://mega.nz/file/1LgSmI7Z#JnjJr_IYKItudYuhDnqVK07uttqHtrYTsi3CVUB9Uxg

    Kód:
    https://data.hu/get/12521392/Brothers__Sisters_Vol3.001
    https://data.hu/get/12521393/Brothers__Sisters_Vol3.002
    https://data.hu/get/12521389/Brothers__Sisters_Vol3.003
    https://data.hu/get/12521390/Brothers__Sisters_Vol3.004
    https://data.hu/get/12521387/Brothers__Sisters_Vol3.005
    https://data.hu/get/12521391/Brothers__Sisters_Vol3.crc


    Kód:
    https://data.hu/get/12521388/Brothers__Sisters_Vol3.zip

    Kód:
    https://videa.hu/videok/felnott/brothers-sisters-vol3.mp4-sisters.-stepsisters-teen-S7W9AdSW1LE8tAte
    https://www.bitporno.com/v/GGYW7BTU14

Hasonló témák

  1. XXX Filmek Devious Step Sisters Vol. 3
    lion46 a fórumba Step Brother Sister XXX
    Válaszok: 0
    Utolsó hozzászólás: 2020-10-26, 16:28
  2. XXX Filmek Dont Fuck My Sisters – 2013
    lion46 a fórumba Step Brother Sister XXX
    Válaszok: 0
    Utolsó hozzászólás: 2020-07-20, 14:08
  3. XXX Videók Brothers Whore
    lion46 a fórumba Sisters stepsisters XXX
    Válaszok: 0
    Utolsó hozzászólás: 2019-07-28, 17:53
  4. Super Cute Vol. 6
    lion46 a fórumba Hard X. XXX
    Válaszok: 0
    Utolsó hozzászólás: 2016-09-24, 06:04
  5. DP Me Vol. 3
    lion46 a fórumba Hard X. XXX
    Válaszok: 0
    Utolsó hozzászólás: 2016-03-16, 09:32

Hozzászólás szabályai

  • Új témákat hozhat létre
  • Válaszokat küldhet
  • Fájlokat csatolhat
  • A hozzászólásaidat módosíthatod
  •  
  • BB code is bekapcsolva
  • Pofik bekapcsolva
  • Az [IMG] kód bekapcsolva
  • [VIDEO] code is bekapcsolva
  • A HTML kód bekapcsolva
A pontos idő 12:20 , a GMT +1 időzóna szerint.
Powered by vBulletin® Version 4.2.5
Copyright © 2000 - 2021, Jelsoft Enterprises Ltd.
Fordítás© vBulletin.hu
Image resizer by SevenSkins

Forum Modifications By Marco Mamdouh
Web Hosting