Devious Step Sisters Vol. 3 (2019) XXX.DVDRip



Porno star:


General
Complete name : Devious Step Sisters 3.mp4
Format : MPEG-4
Format profile : Base Media
Codec ID : isom (isom/iso2/avc1/mp41)
File size : 1.63 GiB
Duration : 2 h 30 min
Overall bit rate : 1 553 kb/s
Writing application : Lavf57.83.100

Video
ID : 1
Format : AVC
Format/Info : Advanced Video Codec
Format profile : Main@L3.1
Format settings : CABAC / 3 Ref Frames
Format settings, CABAC : Yes
Format settings, Reference : 3 frames
Codec ID : avc1
Codec ID/Info : Advanced Video Coding
Duration : 2 h 30 min
Bit rate : 1 503 kb/s
Width : 852 pixels
Height : 480 pixels
Display aspect ratio : 16:9
Frame rate mode : Variable
Frame rate : 29.970 (29970/1000) FPS
Minimum frame rate : 4.294 FPS
Maximum frame rate : 60.000 FPS
Original frame rate : 29.970 (30000/1001) FPS
Standard : NTSC
Color space : YUV
Chroma subsampling : 4:2:0
Bit depth : 8 bits
Scan type : Progressive
Bits/(Pixel*Frame) : 0.123
Stream size : 1.57 GiB (97%)
Color range : Limited
Color primaries : BT.601 NTSC
Transfer characteristics : BT.601
Matrix coefficients : BT.601
Codec configuration box : avcC

Audio
ID : 2
Format : AAC LC
Format/Info : Advanced Audio Codec Low Complexity
Codec ID : mp4a-40-2
Duration : 2 h 30 min
Bit rate mode : Constant
Bit rate : 48.0 kb/s
Channel(s) : 2 channels
Channel layout : L R
Sampling rate : 32.0 kHz
Frame rate : 31.250 FPS (1024 SPF)
Compression mode : Lossy
Stream size : 49.6 MiB (3%)
Default : Yes
Alternate group : 1


Kód:
https://data.hu/get/12646343/Devious_Step_Sisters_3.001
https://data.hu/get/12646346/Devious_Step_Sisters_3.002
https://data.hu/get/12646339/Devious_Step_Sisters_3.003
https://data.hu/get/12646338/Devious_Step_Sisters_3.004
https://data.hu/get/12646345/Devious_Step_Sisters_3.005
https://data.hu/get/12646347/Devious_Step_Sisters_3.006
https://data.hu/get/12646340/Devious_Step_Sisters_3.007
https://data.hu/get/12646341/Devious_Step_Sisters_3.008
https://data.hu/get/12646344/Devious_Step_Sisters_3.009
https://data.hu/get/12646342/Devious_Step_Sisters_3.crc


Kód:
https://data.hu/get/12646349/Devious_Step_Sisters_3.zip


Kód:
https://videa.hu/videok/felntt/devious-step-sisters-3.mp4-18-teens-family-roleplay-UaV3EpGdwtohIEsZ