Fresh and Easy 3 (2012) XXX.DVDRip




Actors:

General
Complete name : Fresh and Easy 3.mp4
Format : MPEG-4
Format profile : Base Media
Codec ID : isom (isom/iso2/avc1/mp41)
File size : 571 MiB
Duration : 1 h 50 min
Overall bit rate : 722 kb/s
Writing application : Lavf58.30.100

Video
ID : 1
Format : AVC
Format/Info : Advanced Video Codec
Format profile : High@L3
Format settings : CABAC / 5 Ref Frames
Format settings, CABAC : Yes
Format settings, Reference fra : 5 frames
Codec ID : avc1
Codec ID/Info : Advanced Video Coding
Duration : 1 h 50 min
Bit rate : 640 kb/s
Width : 856 pixels
Height : 480 pixels
Display aspect ratio : 16:9
Original display aspect ratio : 16:9
Frame rate mode : Variable
Frame rate : 24.000 FPS
Minimum frame rate : 23.585 FPS
Maximum frame rate : 24.000 FPS
Color space : YUV
Chroma subsampling : 4:2:0
Bit depth : 8 bits
Scan type : Progressive
Bits/(Pixel*Frame) : 0.065
Stream size : 506 MiB (89%)
Writing library : x264 core
Codec configuration box : avcC

Audio
ID : 2
Format : AAC LC
Format/Info : Advanced Audio Codec Low Complexity
Codec ID : mp4a-40-2
Duration : 1 h 50 min
Bit rate mode : Constant
Bit rate : 75.8 kb/s
Channel(s) : 2 channels
Channel layout : L R
Sampling rate : 44.1 kHz
Frame rate : 43.066 FPS (1024 SPF)
Compression mode : Lossy
Stream size : 59.9 MiB (10%)
Default : Yes
Alternate group : 1



Kód:
https://data.hu/get/12649660/Fresh_and_Easy_3.001
https://data.hu/get/12649659/Fresh_and_Easy_3.002
https://data.hu/get/12649663/Fresh_and_Easy_3.003
https://data.hu/get/12649662/Fresh_and_Easy_3.crc


Kód:
https://data.hu/get/12649661/Fresh_and_Easy_3.zip


Kód:
https://videa.hu/videok/felnott/fresh-and-easy-3.mp4-18-teens-amateur-hfiOULOZmo6Z3rza